Rust.2018.720p.WEBRip.x264.LLG

  • Category Movies
  • Type HD
  • Language English
  • Total size 954.0 MB
  • Uploaded By LifeLongg
  • Downloads 91
  • Last checked 4 hours ago
  • Date uploaded 9 hours ago
  • Seeders 13
  • Leechers 11

Rust Creek

ThrillerDrama

When an overachieving college senior makes a wrong turn, her road trip becomes a life-changing fight for survival in rural Kentucky.

Infohash : FDDED21D8D8626A74BBDA6699B288188E6399186

Quote:




******************************Thumbnail:**********************



******************************Screenshots:********************

Screenshot 1

Screenshot 2

Screenshot 3

Screenshot 4

Screenshot 5

Screenshot 6

Screenshot 7

Screenshot 8

Screenshot 9

Screenshot 0


******************************************************

Rust.2018.720p.WEBRip.x264.LLG.mp4
Format : MPEG-4
Format profile : Base Media
Codec ID : isom (isom/iso2/avc1/mp41)
File size : 954 MiB
Duration : 1 h 39 min
Overall bit rate mode : Variable
Overall bit rate : 1 338 kb/s
Writing application : Lavf57.83.100

Video
ID : 1
Format : AVC
Format/Info : Advanced Video Codec
Format profile : [email protected]
Format settings : CABAC / 1 Ref Frames
Format settings, CABAC : Yes
Format settings, RefFrames : 1 frame
Codec ID : avc1
Codec ID/Info : Advanced Video Coding
Duration : 1 h 39 min
Bit rate mode : Variable
Bit rate : 1 206 kb/s
Maximum bit rate : 3 600 kb/s
Width : 1 280 pixels
Height : 532 pixels
Display aspect ratio : 2.40:1
Original display aspect ratio : 2.40:1
Frame rate mode : Constant
Frame rate : 23.976 (23976/1000) FPS
Color space : YUV
Chroma subsampling : 4:2:0
Bit depth : 8 bits
Scan type : Progressive
Bits/(Pixel*Frame) : 0.074
Stream size : 860 MiB (90%)
Codec configuration box : avcC

Audio
ID : 2
Format : AAC LC
Codec ID : mp4a-40-2
Duration : 1 h 39 min
Bit rate mode : Constant
Bit rate : 128 kb/s
Channel(s) : 2 channels
Channel layout : L R
Sampling rate : 48.0 kHz
Frame rate : 46.875 FPS (1024 SPF)
Compression mode : Lossy
Stream size : 91.3 MiB (10%)
Default : Yes
Alternate group : 1



********************************************************


Files:

Rust.2018.720p.WEBRip.x264.LLG
  • Rust.2018.720p.WEBRip.x264.LLG.mp4 (954.0 MB)

There are currently no comments. Feel free to leave one :)

Code:

  • udp://tracker.openbittorrent.com:80/announce
  • udp://tracker.opentrackr.org:1337/announce