Aquaman.2018.HC.HDRip.XviD.AC3.LLG

  • Category Movies
  • Type Divx/Xvid
  • Language English
  • Total size 1.1 GB
  • Uploaded By LifeLongg
  • Downloads 324
  • Last checked 1 hour ago
  • Date uploaded 10 hours ago
  • Seeders 71
  • Leechers 42

Infohash : ECA8294ACFE18F787B178142499F63D3B5F88B73

Quote:




******************************Thumbnail:**********************



******************************Screenshots:********************

Screenshot 1

Screenshot 2

Screenshot 3

Screenshot 4

Screenshot 5

Screenshot 6

Screenshot 7

Screenshot 8

Screenshot 9

Screenshot 0


******************************************************

Aquaman.2018.HC.HDRip.XviD.AC3.LLG.mp4
Format : MPEG-4
Format profile : Base Media
Codec ID : isom (isom/iso2/avc1/mp41)
File size : 1.10 GiB
Duration : 2 h 22 min
Overall bit rate mode : Variable
Overall bit rate : 1 108 kb/s
Writing application : Lavf57.83.100

Video
ID : 1
Format : AVC
Format/Info : Advanced Video Codec
Format profile : [email protected]
Format settings : CABAC / 1 Ref Frames
Format settings, CABAC : Yes
Format settings, RefFrames : 1 frame
Codec ID : avc1
Codec ID/Info : Advanced Video Coding
Duration : 2 h 22 min
Bit rate mode : Variable
Bit rate : 913 kb/s
Maximum bit rate : 2 700 kb/s
Width : 720 pixels
Height : 304 pixels
Display aspect ratio : 2.35:1
Frame rate mode : Constant
Frame rate : 29.970 (29970/1000) FPS
Original frame rate : 29.970 (30000/1001) FPS
Color space : YUV
Chroma subsampling : 4:2:0
Bit depth : 8 bits
Scan type : Progressive
Bits/(Pixel*Frame) : 0.139
Stream size : 931 MiB (82%)
Codec configuration box : avcC

Audio
ID : 2
Format : AC-3
Format/Info : Audio Coding 3
Commercial name : Dolby Digital
Codec ID : ac-3
Duration : 2 h 22 min
Bit rate mode : Constant
Bit rate : 192 kb/s
Channel(s) : 2 channels
Channel layout : L R
Sampling rate : 48.0 kHz
Frame rate : 31.250 FPS (1536 SPF)
Bit depth : 16 bits
Compression mode : Lossy
Stream size : 196 MiB (17%)
Title : T2_Audio - English
Service kind : Complete Main
Default : Yes
Alternate group : 1




********************************************************


Files:

Aquaman.2018.HC.HDRip.XviD.AC3.LLG
  • Aquaman.2018.HC.HDRip.XviD.AC3.LLG.mp4 (1.1 GB)

There are currently no comments. Feel free to leave one :)

Code:

  • udp://tracker.openbittorrent.com:80/announce
  • udp://tracker.opentrackr.org:1337/announce