The Wife - Vivere nell'ombra (2017).720p.H264.italian.english.Ac3...

  • Category Movies
  • Type HD
  • Language English
  • Total size 2.0 GB
  • Uploaded By robbyrs
  • Downloads 216
  • Last checked 9 minutes ago
  • Date uploaded 1 day ago
  • Seeders 26
  • Leechers 13

The Wife

Drama

A wife questions her life choices as she travels to Stockholm with her husband, where he is slated to receive the Nobel Prize for Literature.

Infohash : 1F36CBB148AA33DEC404DFFEF2D4BDE9CCD8ECEF

The Wife - Vivere nell'ombra (2017).720p.H264.italian.english.Ac3-5.1.sub.ita-MIRCrew


NO FOUND ONLY ORIGINAL RELEASE

My release is always in double track audio italian and Original audio
for select it use VLC or dvd player home
not use wmp

The Wife - Vivere nell'ombra (2017)

Quality MIRCrew on HD 720p da 2,0 gb



VIDEO:







GENERE: Drammatico
ANNO: 2017
REGIA: Björn Runge
PAESE: Svezia, USA
DURATA: 100 Min



Glenn Close, Jonathan Pryce, Christian Slater, Annie Starke, Elizabeth McGovern, Max Irons, Harry Lloyd, Alix Wilton Regan



The Wife - Vivere nell'ombra, diretto da Björn Runge, racconta la storia di Joan Castleman (Glenn Close), donna dalla bellezza impeccabile, mai intaccata dal tempo. Quarant'anni passati a sacrificare il proprio talento e i propri sogni, lasciando che suo marito, l’affascinante e carismatico Joe (Jonathan Pryce), si impadronisca della paternità delle sue opere.



A wife questions her life choices as she travels to Stockholm with her husband, where he is slated to receive the Nobel Prize for Literature.







General
Complete name : The Wife - Vivere nell'ombra (2017).720p.h264.ita.NUita.eng.sub.ita-MIRCrew\The Wife - Vivere nell'ombra (2017).720p.h264.ita.NUita.eng.sub.ita-MIRCrew.mkv
Format : Matroska
Format version : Version 4 / Version 2
File size : 1.99 GiB
Duration : 1h 40mn
Overall bit rate : 2 825 Kbps
Movie name : MIRCrew
Encoded date : UTC 2019-01-27T10:41:35Z
Writing application : mkvmerge v26.0.0 ('In The Game') 64-bit
Writing library : Lavf55.12.0

Video
ID : 1
Format : AVC
Format/Info : Advanced Video Codec
Format profile : [email protected]
Format settings, CABAC : Yes
Format settings, ReFrames : 4 frames
Codec ID : V_MPEG4/ISO/AVC
Duration : 1h 40mn
Bit rate : 2 000 Kbps
Width : 1 280 pixels
Height : 528 pixels
Display aspect ratio : 2.40:1
Frame rate : 24.000 fps
Color space : YUV
Chroma subsampling : 4:2:0
Bit depth : 8 bits
Scan type : Progressive
Bits/(Pixel*Frame) : 0.123
Stream size : 1.36 GiB (69%)
Title : MIRCrew
Writing library : x264 core 142 r2479 dd79a61
Encoding settings : cabac=1 / ref=1 / deblock=1:-1:-1 / analyse=0x1:0x111 / me=hex / subme=2 / psy=1 / psy_rd=1.00:0.15 / mixed_ref=0 / me_range=16 / chroma_me=1 / trellis=0 / 8x8dct=0 / cqm=0 / deadzone=21,11 / fast_pskip=1 / chroma_qp_offset=0 / threads=6 / lookahead_threads=2 / sliced_threads=0 / nr=0 / decimate=1 / interlaced=0 / bluray_compat=0 / constrained_intra=0 / bframes=3 / b_pyramid=2 / b_adapt=1 / b_bias=0 / direct=1 / weightb=1 / open_gop=0 / weightp=1 / keyint=240 / keyint_min=24 / scenecut=40 / intra_refresh=0 / rc_lookahead=10 / rc=abr / mbtree=1 / bitrate=2000 / ratetol=1.0 / qcomp=0.60 / qpmin=0 / qpmax=69 / qpstep=4 / vbv_maxrate=50000 / vbv_bufsize=62500 / nal_hrd=none / filler=0 / ip_ratio=1.40 / aq=1:1.00
Language : Italian
Default : Yes
Forced : No
DURATION : 01:40:44.167000000
NUMBER_OF_FRAMES : 145060
NUMBER_OF_BYTES : 1504372872
_STATISTICS_WRITING_APP : mkvmerge v26.0.0 ('In The Game') 64-bit
_STATISTICS_WRITING_DATE_UTC : 2019-01-27 16:18:36
_STATISTICS_TAGS : BPS DURATION NUMBER_OF_FRAMES NUMBER_OF_BYTES
Color primaries : BT.709-5, BT.1361, IEC 61966-2-4, SMPTE RP177
Transfer characteristics : BT.709-5, BT.1361
Matrix coefficients : BT.709-5, BT.1361, IEC 61966-2-4 709, SMPTE RP177

Audio #1
ID : 2
Format : AC-3
Format/Info : Audio Coding 3
Mode extension : CM (complete main)
Codec ID : A_AC3
Duration : 1h 40mn
Bit rate mode : Constant
Bit rate : 448 Kbps
Channel(s) : 6 channels
Channel positions : Front: L C R, Side: L R, LFE
Sampling rate : 48.0 KHz
Bit depth : 16 bits
Compression mode : Lossy
Delay relative to video : -5ms
Stream size : 323 MiB (16%)
Title : Ita Ac3 5.1
Language : Italian
Default : Yes
Forced : No
DURATION : 01:40:44.160000000
NUMBER_OF_FRAMES : 188880
NUMBER_OF_BYTES : 338472960
_STATISTICS_WRITING_APP : mkvmerge v26.0.0 ('In The Game') 64-bit
_STATISTICS_WRITING_DATE_UTC : 2019-01-27 16:18:36
_STATISTICS_TAGS : BPS DURATION NUMBER_OF_FRAMES NUMBER_OF_BYTES

Audio #2
ID : 3
Format : AC-3
Format/Info : Audio Coding 3
Mode extension : CM (complete main)
Codec ID : A_AC3
Duration : 1h 40mn
Bit rate mode : Constant
Bit rate : 384 Kbps
Channel(s) : 6 channels
Channel positions : Front: L C R, Side: L R, LFE
Sampling rate : 48.0 KHz
Bit depth : 16 bits
Compression mode : Lossy
Delay relative to video : -5ms
Stream size : 277 MiB (14%)
Title : Eng Ac3 5.1
Language : English
Default : No
Forced : No
DURATION : 01:40:44.192000000
NUMBER_OF_FRAMES : 188881
NUMBER_OF_BYTES : 290121216
_STATISTICS_WRITING_APP : mkvmerge v26.0.0 ('In The Game') 64-bit
_STATISTICS_WRITING_DATE_UTC : 2019-01-27 16:18:36
_STATISTICS_TAGS : BPS DURATION NUMBER_OF_FRAMES NUMBER_OF_BYTES

Menu
00:00:00.000 : :Capitolo 01
00:01:07.791 : :Capitolo 02
00:11:36.833 : :Capitolo 03
00:19:56.333 : :Capitolo 04
00:29:35.541 : :Capitolo 05
00:38:34.583 : :Capitolo 06
00:45:45.916 : :Capitolo 07
00:53:13.791 : :Capitolo 08
01:01:15.541 : :Capitolo 09
01:11:44.291 : :Capitolo 10
01:19:45.833 : :Capitolo 11
01:26:50.666 : :Capitolo 12
01:34:03.666 : :Capitolo 13



Files:

The Wife - Vivere nell'ombra (2017).720p.h264.ita.NUita.eng.sub.ita-MIRCrew
  • The Wife - Vivere nell'ombra (2017).720p.h264.ita.NUita.eng.sub.ita-MIRCrew.ita.idx (59.1 KB)
  • The Wife - Vivere nell'ombra (2017).720p.h264.ita.NUita.eng.sub.ita-MIRCrew.ita.sub (7.5 MB)
  • The Wife - Vivere nell'ombra (2017).720p.h264.ita.NUita.eng.sub.ita-MIRCrew.mkv (2.0 GB)
  • The Wife - Vivere nell'ombra (2017).720p.h264.ita.NUita.eng.sub.ita-MIRCrew.NUita.idx (59.8 KB)
  • The Wife - Vivere nell'ombra (2017).720p.h264.ita.NUita.eng.sub.ita-MIRCrew.NUita.sub (7.8 MB)

There are currently no comments. Feel free to leave one :)

Code:

  • udp://tracker.coppersurfer.tk:6969/announce
  • udp://tracker.torrent.eu.org:451/announce
  • udp://tracker.pirateparty.gr:6969/announce
  • udp://tracker.opentrackr.org:1337/announce
  • udp://tracker.leechers-paradise.org:6969/announce
  • udp://tracker.eddie4.nl:6969/announce
  • udp://shadowshq.yi.org:6969/announce
  • udp://shadowshq.eddie4.nl:6969/announce
  • udp://inferno.demonoid.pw:3391/announce
  • udp://eddie4.nl:6969/announce
  • udp://9.rarbg.to:2730/announce
  • udp://9.rarbg.com:2710/announce
  • udp://9.rarbg.me:2780/announce
  • udp://62.138.0.158:6969/announce
  • udp://151.80.120.114:2710/announce