Polar (2019).720p.H264.italian.english.Ac3-5.1.sub.ita.eng-MIRCre...

  • Category Movies
  • Type HD
  • Language English
  • Total size 2.2 GB
  • Uploaded By robbyrs
  • Downloads 703
  • Last checked 3 hours ago
  • Date uploaded 3 days ago
  • Seeders 60
  • Leechers 17

Polar

ActionCrime

When a retiring assassin realizes he's the target of a hit, he winds up back in the game going head to head with an army of younger, ruthless killers.

Infohash : D9B88952DA5F95E05B414859FC30C488CC7C3B9E

Polar (2019).720p.H264.italian.english.Ac3-5.1.sub.ita.eng-MIRCrew


NO FOUND ONLY ORIGINAL RELEASE

My release is always in double track audio italian and Original audio
for select it use VLC or dvd player home
not use wmp

Polar (2019)

Quality MIRCrew on HD 720p da 2,1 gb







Paese di produzione Stati Uniti d'America, Germania
Anno 2019
Genere azione, noir
Regia Jonas Åkerlund
Soggetto dal fumetto di Víctor Santos
Sceneggiatura Jayson Rothwell



Mads Mikkelsen: Duncan Vizla "The Black Kaiser"
Vanessa Hudgens: Camille
Katheryn Winnick: Fierce
Matt Lucas: Blut
Robert Maillet: Karl




Duncan, noto nell'ambiente dei sicari come l'infallibile Black Kaiser, è prossimo alla pensione, che vorrebbe godersi in una zona remota e innevata, lontano da tutto e da tutti.



The world's top assassin, Duncan Vizla, is settling into retirement when his former employer marks him as a liability to the firm. Against his will, he finds himself back in the game going head to head with an army of younger killers.









General

Complete name : Polar (2019).72op.h264.ita.eng.sub.ita.eng-MIRCrew\Polar (2019).72op.h264.ita.eng.sub.ita.eng-MIRCrew.mkv
Format : Matroska
Format version : Version 2
File size : 2.16 GiB
Duration : 1h 58mn
Overall bit rate : 2 603 Kbps
Movie name : MIRCrew
Encoded date : UTC 2019-01-25 13:47:06
Writing application : mkvmerge v5.4.0 ('Piper') built on Mar 10 2012 13:34:39
Writing library : Lavf54.63.100
COMMENT : mircrew

Video
ID : 1
Format : AVC
Format/Info : Advanced Video Codec
Format profile : [email protected]
Format settings, CABAC : Yes
Format settings, ReFrames : 2 frames
Codec ID : V_MPEG4/ISO/AVC
Duration : 1h 58mn
Bit rate : 1 784 Kbps
Nominal bit rate : 1 900 Kbps
Width : 1 280 pixels
Height : 720 pixels
Display aspect ratio : 16:9
Frame rate mode : Variable
Frame rate : 23.976 fps
Color space : YUV
Chroma subsampling : 4:2:0
Bit depth : 8 bits
Scan type : Progressive
Bits/(Pixel*Frame) : 0.081
Stream size : 1.48 GiB (69%)
Title : MIRCrew
Writing library : x264 core 130 r2273
Encoding settings : cabac=1 / ref=2 / deblock=1:0:0 / analyse=0x1:0x131 / me=hex / subme=7 / psy=1 / psy_rd=1.00:0.00 / mixed_ref=0 / me_range=16 / chroma_me=1 / trellis=1 / 8x8dct=0 / cqm=0 / deadzone=21,11 / fast_pskip=1 / chroma_qp_offset=-2 / threads=6 / lookahead_threads=1 / sliced_threads=0 / nr=0 / decimate=1 / interlaced=0 / bluray_compat=0 / constrained_intra=0 / bframes=3 / b_pyramid=0 / b_adapt=1 / b_bias=0 / direct=3 / weightb=1 / open_gop=0 / weightp=2 / keyint=230 / keyint_min=23 / scenecut=40 / intra_refresh=0 / rc_lookahead=40 / rc=abr / mbtree=1 / bitrate=1900 / ratetol=1.0 / qcomp=0.60 / qpmin=10 / qpmax=69 / qpstep=4 / vbv_maxrate=24000 / vbv_bufsize=24000 / nal_hrd=none / ip_ratio=1.40 / aq=1:1.00
Language : Italian
Default : Yes
Forced : No
DURATION : 01:58:53.502000000
NUMBER_OF_FRAMES : 171033
NUMBER_OF_BYTES : 5745033108
_STATISTICS_WRITING_APP : mkvmerge v28.2.0 ('The Awakening') 64-bit
_STATISTICS_WRITING_DATE_UTC : 2019-01-25 13:47:06
_STATISTICS_TAGS : BPS DURATION NUMBER_OF_FRAMES NUMBER_OF_BYTES

Audio #1
ID : 2
Format : AC-3
Format/Info : Audio Coding 3
Mode extension : CM (complete main)
Codec ID : A_AC3
Duration : 1h 58mn
Bit rate mode : Constant
Bit rate : 384 Kbps
Channel(s) : 6 channels
Channel positions : Front: L C R, Side: L R, LFE
Sampling rate : 48.0 KHz
Bit depth : 16 bits
Compression mode : Lossy
Delay relative to video : -5ms
Stream size : 327 MiB (15%)
Title : Ita Ac3 5.1
Language : Italian
Default : No
Forced : No
DURATION : 01:58:53.600000000
NUMBER_OF_FRAMES : 222925
NUMBER_OF_BYTES : 342412800
_STATISTICS_WRITING_APP : mkvmerge v28.2.0 ('The Awakening') 64-bit
_STATISTICS_WRITING_DATE_UTC : 2019-01-25 13:47:06
_STATISTICS_TAGS : BPS DURATION NUMBER_OF_FRAMES NUMBER_OF_BYTES

Audio #2
ID : 3
Format : AC-3
Format/Info : Audio Coding 3
Mode extension : CM (complete main)
Codec ID : A_AC3
Duration : 1h 58mn
Bit rate mode : Constant
Bit rate : 384 Kbps
Channel(s) : 6 channels
Channel positions : Front: L C R, Side: L R, LFE
Sampling rate : 48.0 KHz
Bit depth : 16 bits
Compression mode : Lossy
Delay relative to video : -5ms
Stream size : 327 MiB (15%)
Title : Eng Ac3 5.1
Language : English
Default : No
Forced : No
DURATION : 01:58:53.600000000
NUMBER_OF_FRAMES : 222925
NUMBER_OF_BYTES : 570688000
_STATISTICS_WRITING_APP : mkvmerge v28.2.0 ('The Awakening') 64-bit
_STATISTICS_WRITING_DATE_UTC : 2019-01-25 13:47:06
_STATISTICS_TAGS : BPS DURATION NUMBER_OF_FRAMES NUMBER_OF_BYTES

Files:

Polar (2019).72op.h264.ita.eng.sub.ita.eng-MIRCrew
  • Polar (2019).72op.h264.ita.eng.sub.ita.eng-MIRCrew.eng.srt (3.4 KB)
  • Polar (2019).72op.h264.ita.eng.sub.ita.eng-MIRCrew.forcedeng.srt (82.9 KB)
  • Polar (2019).72op.h264.ita.eng.sub.ita.eng-MIRCrew.ita.srt (76.2 KB)
  • Polar (2019).72op.h264.ita.eng.sub.ita.eng-MIRCrew.mkv (2.2 GB)
  • Polar (2019).72op.h264.ita.eng.sub.ita.eng-MIRCrew.srt (10.1 KB)

There are currently no comments. Feel free to leave one :)

Code:

  • udp://tracker.coppersurfer.tk:6969/announce
  • udp://tracker.torrent.eu.org:451/announce
  • udp://tracker.pirateparty.gr:6969/announce
  • udp://tracker.opentrackr.org:1337/announce
  • udp://tracker.leechers-paradise.org:6969/announce
  • udp://tracker.eddie4.nl:6969/announce
  • udp://shadowshq.yi.org:6969/announce
  • udp://shadowshq.eddie4.nl:6969/announce
  • udp://inferno.demonoid.pw:3391/announce
  • udp://eddie4.nl:6969/announce
  • udp://9.rarbg.to:2730/announce
  • udp://9.rarbg.com:2710/announce
  • udp://9.rarbg.me:2780/announce
  • udp://62.138.0.158:6969/announce
  • udp://151.80.120.114:2710/announce