Simmba 2018.Hindi.720p PRE-DVDRip x264 AAC.LLG

  • Category Movies
  • Type Bollywood
  • Language Hindi
  • Total size 1.2 GB
  • Uploaded By LifeLongg
  • Downloads 16612
  • Last checked 3 weeks ago
  • Date uploaded 4 weeks ago
  • Seeders 104
  • Leechers 48

Simmba

Action

Infohash : 022E329B9A1784962467616B56EE8D5F09DFFFDB

Quote:




******************************Thumbnail:**********************



******************************Screenshots:********************

Screenshot 1

Screenshot 2

Screenshot 3

Screenshot 4

Screenshot 5

Screenshot 6

Screenshot 7

Screenshot 8

Screenshot 9

Screenshot 0


******************************************************

Simmba 2018.Hindi.720p PRE-DVDRip x264 AAC.LLG.mp4
Format : MPEG-4
Format profile : Base Media
Codec ID : isom (isom/iso2/avc1/mp41)
File size : 1.17 GiB
Duration : 2 h 41 min
Overall bit rate mode : Variable
Overall bit rate : 1 032 kb/s


Video
ID : 1
Format : AVC
Format/Info : Advanced Video Codec
Format profile : [email protected]
Format settings : CABAC / 1 Ref Frames
Format settings, CABAC : Yes
Format settings, RefFrames : 1 frame
Codec ID : avc1
Codec ID/Info : Advanced Video Coding
Duration : 2 h 41 min
Bit rate mode : Variable
Bit rate : 898 kb/s
Maximum bit rate : 2 700 kb/s
Width : 1 280 pixels
Height : 720 pixels
Display aspect ratio : 16:9
Frame rate mode : Constant
Frame rate : 23.800 FPS
Color space : YUV
Chroma subsampling : 4:2:0
Bit depth : 8 bits
Scan type : Progressive
Bits/(Pixel*Frame) : 0.041
Stream size : 1.02 GiB (87%)

Audio
ID : 2
Format : AAC LC
Codec ID : mp4a-40-2
Duration : 2 h 41 min
Bit rate mode : Constant
Bit rate : 129 kb/s
Channel(s) : 2 channels
Channel layout : L R
Sampling rate : 44.1 kHz
Frame rate : 43.066 FPS (1024 SPF)
Compression mode : Lossy
Stream size : 149 MiB (12%)
Language : Hindi
Default : Yes





******************************************************


Files:

Simmba 2018.Hindi.720p PRE-DVDRip x264 AAC.LLG
  • SAMPLE.mp4 (7.3 MB)
  • Simmba 2018.Hindi.720p PRE-DVDRip x264 AAC.LLG.mp4 (1.2 GB)

Comments

Code:

  • udp://tracker.openbittorrent.com:80/announce
  • udp://tracker.opentrackr.org:1337/announce
  • udp://tracker.coppersurfer.tk:6969/announce
  • udp://tracker.pirateparty.gr:6969/announce
  • udp://tracker.coppersurfer.tk:6969/announce
  • udp://tracker.leechers-paradise.org:6969/announce
  • udp://eddie4.nl:6969/announce
  • udp://tracker.tiny-vps.com:6969/announce
  • udp://9.rarbg.me:2770/announce
  • udp://9.rarbg.to:2770/announce
  • udp://public.popcorn-tracker.org:6969/announce
  • udp://open.stealth.si:80/announce
  • udp://tracker.vanitycore.co:6969/announce
  • udp://tracker.opentrackr.org:1337/announce
  • udp://bt.firebit.co.uk:6969/announce