Bad.Seed.2018.1080p.WEB-DL.X264.AC3.LLG

  • Category Movies
  • Type HD
  • Language English
  • Total size 1.7 GB
  • Uploaded By LifeLongg
  • Downloads 334
  • Last checked 1 hour ago
  • Date uploaded 17 hours ago
  • Seeders 44
  • Leechers 50

The Bad Seed

HorrorMystery

A couple suspects that their seemingly perfect adolescent daughter is a heartless killer.

Infohash : 2EF2299F42ECF2C5037C916B308005FF9C8E2710

Quote:




******************************Thumbnail:**********************



******************************Screenshots:********************

Screenshot 1

Screenshot 2

Screenshot 3

Screenshot 4

Screenshot 5

Screenshot 6

Screenshot 7

Screenshot 8

Screenshot 9

Screenshot 0

******************************************************

Bad.Seed.2018.1080p.WEB-DL.X264.AC3.LLG.mp4
Format : MPEG-4
Format profile : Base Media
Codec ID : isom (isom/iso2/avc1/mp41)
File size : 1.67 GiB
Duration : 1 h 43 min
Overall bit rate mode : Variable
Overall bit rate : 2 322 kb/s
Writing application : Lavf57.83.100

Video
ID : 1
Format : AVC
Format/Info : Advanced Video Codec
Format profile : [email protected]
Format settings : CABAC / 1 Ref Frames
Format settings, CABAC : Yes
Format settings, RefFrames : 1 frame
Codec ID : avc1
Codec ID/Info : Advanced Video Coding
Duration : 1 h 43 min
Bit rate mode : Variable
Bit rate : 1 934 kb/s
Maximum bit rate : 6 000 kb/s
Width : 1 920 pixels
Height : 800 pixels
Display aspect ratio : 2.40:1
Frame rate mode : Constant
Frame rate : 24.000 FPS
Color space : YUV
Chroma subsampling : 4:2:0
Bit depth : 8 bits
Scan type : Progressive
Bits/(Pixel*Frame) : 0.052
Stream size : 1.39 GiB (83%)
Language : English
Codec configuration box : avcC

Audio
ID : 2
Format : AC-3
Format/Info : Audio Coding 3
Commercial name : Dolby Digital
Codec ID : ac-3
Duration : 1 h 43 min
Bit rate mode : Constant
Bit rate : 384 kb/s
Channel(s) : 6 channels
Channel layout : L R C LFE Ls Rs
Sampling rate : 48.0 kHz
Frame rate : 31.250 FPS (1536 SPF)
Bit depth : 16 bits
Compression mode : Lossy
Stream size : 283 MiB (17%)
Language : English
Service kind : Complete Main
Default : Yes
Alternate group : 1



********************************************************


Files:

Bad.Seed.2018.1080p.WEB-DL.X264.AC3.LLG
  • SAMPLE.ts (76.2 MB)
  • Bad.Seed.2018.1080p.WEB-DL.X264.AC3.LLG.mp4 (1.7 GB)

There are currently no comments. Feel free to leave one :)

Code:

  • udp://tracker.openbittorrent.com:80/announce
  • udp://tracker.opentrackr.org:1337/announce
  • UDP://TRACKER.LEECHERS-PARADISE.ORG:6969/ANNOUNCE
  • UDP://TRACKER.COPPERSURFER.TK:6969/ANNOUNCE
  • UDP://TRACKER.OPENTRACKR.ORG:1337/ANNOUNCE
  • UDP://TRACKER.ZER0DAY.TO:1337/ANNOUNCE
  • UDP://EDDIE4.NL:6969/ANNOUNCE