The Nun: La vocazione del male (2018).720p.H264.italian.english.A...

  • Category Movies
  • Type HD
  • Language English
  • Total size 1.9 GB
  • Uploaded By robbyrs
  • Downloads 588
  • Last checked 3 hours ago
  • Date uploaded 3 days ago
  • Seeders 30
  • Leechers 11

The Nun

HorrorMysteryThriller

When a young nun at a cloistered abbey in Romania takes her own life, a priest with a haunted past and a novitiate on the threshold of her final vows are sent by the Vatican to investigate. Together they uncover the order’s unholy secret. Risking not only their lives but their faith and their very souls, they confront a malevolent force in the form of the same demonic nun that first terrorized audiences in “The Conjuring 2,” as the abbey becomes a horrific battleground between the living and the damned.

Infohash : E475999CBF79F09731A5C9649EEC145DB4F7D2CE

The Nun - La vocazione del male (2018).720p.H264.italian.english.Ac3-5.1.multisub-MIRCrew


NO FOUND ONLY ORIGINAL RELEASE

My release is always in double track audio italian and Original audio
for select it use VLC or dvd player home
not use wmp

The Nun - La vocazione del male (2018)

Quality MIRCrew on HD 720p da 1,9 gb







Titolo originale The Nun
Lingua originale inglese
Paese di produzione Stati Uniti d'America
Anno 2018
Durata 96 min
Genere orrore, thriller
Regia Corin Hardy
Soggetto Gary Dauberman, James Wan
Sceneggiatura Gary Dauberman
Produttore Peter Safran, James Wan



Demián Bichir: Padre Anthony Burke
Taissa Farmiga: Suor Irene
Jonas Bloquet: Maurice Theriault
Charlotte Hope: Suor Victoria
Ingrid Bisu: Suor Oana
Gabrielle Downey: La Badessa
Bonnie Aarons: Valak



Nel 1952, in Romania, due suore di clausura cattoliche che vivono nel monastero di Cârţa vengono attaccate da una forza invisibile quando entrano in un tunnel per recuperare un'antica reliquia cristiana. La suora sopravvissuta, Suor Victoria, fugge dall'aggressore, un demone che appare come una suora, e si impicca lanciandosi da una finestra. Il suo corpo viene scoperto giorni dopo da un giovane del villaggio che consegna periodicamente provviste alle suore........................



A priest with a haunted past and a novice on the threshold of her final vows are sent by the Vatican to investigate the death of a young nun in Romania and confront a malevolent force in the form of a demonic nun.












General
Unique ID : 59233957806101799954464313241033785759 (0x2C900B9932277B701EE14B7C995C419F)
Complete name : The Nun - La vocazione del male (2018).720p.h264.ita.eng.sub.ita.eng-MIRCrew\The Nun - La vocazione del male (2018).720p.h264.ita.eng.sub.ita.eng-MIRCrew.mkv
Format : Matroska
Format version : Version 2
File size : 1.89 GiB
Duration : 1h 36mn
Overall bit rate : 2 803 Kbps
Movie name : MIRCrew
Encoded date : UTC 2018-12-21 13:47:14
Writing application : Lavf54.63.100
Writing library : Lavf54.63.100
COMMENT : mircrew-releases

Video
ID : 1
Format : AVC
Format/Info : Advanced Video Codec
Format profile : [email protected]
Format settings, CABAC : Yes
Format settings, ReFrames : 2 frames
Codec ID : V_MPEG4/ISO/AVC
Duration : 1h 36mn
Bit rate : 1 900 Kbps
Width : 1 280 pixels
Height : 528 pixels
Display aspect ratio : 2.40:1
Frame rate mode : Variable
Frame rate : 23.976 fps
Color space : YUV
Chroma subsampling : 4:2:0
Bit depth : 8 bits
Scan type : Progressive
Bits/(Pixel*Frame) : 0.117
Stream size : 1.25 GiB (66%)
Writing library : x264 core 130 r2273
Encoding settings : cabac=1 / ref=2 / deblock=1:0:0 / analyse=0x1:0x131 / me=hex / subme=7 / psy=1 / psy_rd=1.00:0.00 / mixed_ref=0 / me_range=16 / chroma_me=1 / trellis=1 / 8x8dct=0 / cqm=0 / deadzone=21,11 / fast_pskip=1 / chroma_qp_offset=-2 / threads=6 / lookahead_threads=1 / sliced_threads=0 / nr=0 / decimate=1 / interlaced=0 / bluray_compat=0 / constrained_intra=0 / bframes=3 / b_pyramid=0 / b_adapt=1 / b_bias=0 / direct=3 / weightb=1 / open_gop=0 / weightp=2 / keyint=230 / keyint_min=23 / scenecut=40 / intra_refresh=0 / rc_lookahead=40 / rc=abr / mbtree=1 / bitrate=1900 / ratetol=1.0 / qcomp=0.60 / qpmin=10 / qpmax=69 / qpstep=4 / vbv_maxrate=24000 / vbv_bufsize=24000 / nal_hrd=none / ip_ratio=1.40 / aq=1:1.00
Language : Italian
Default : Yes
Forced : No

Audio #1
ID : 2
Format : AC-3
Format/Info : Audio Coding 3
Mode extension : CM (complete main)
Codec ID : A_AC3
Duration : 1h 36mn
Bit rate mode : Constant
Bit rate : 448 Kbps
Channel(s) : 6 channels
Channel positions : Front: L C R, Side: L R, LFE
Sampling rate : 48.0 KHz
Bit depth : 16 bits
Compression mode : Lossy
Delay relative to video : 1mn 5s
Stream size : 309 MiB (16%)
Title : AC3 5.1
Language : Italian
Default : Yes
Forced : No

Audio #2
ID : 3
Format : AC-3
Format/Info : Audio Coding 3
Mode extension : CM (complete main)
Codec ID : A_AC3
Duration : 1h 36mn
Bit rate mode : Constant
Bit rate : 448 Kbps
Channel(s) : 6 channels
Channel positions : Front: L C R, Side: L R, LFE
Sampling rate : 48.0 KHz
Bit depth : 16 bits
Compression mode : Lossy
Delay relative to video : 1mn 5s
Stream size : 309 MiB (16%)
Title : AC3 5.1
Language : English
Default : No
Forced : No

Menu
00:00:00.000 : :00:00:00.000
00:08:42.772 : :00:08:42.772
00:17:55.074 : :00:17:55.074
00:29:17.506 : :00:29:17.506
00:38:05.033 : :00:38:05.033
00:48:49.802 : :00:48:49.802
00:58:49.192 : :00:58:49.192
01:09:16.944 : :01:09:16.944
01:18:14.565 : :01:18:14.565
01:24:18.637 : :01:24:18.637
01:32:30.295 : :01:32:30.295



Files:

The Nun - La vocazione del male (2018).720p.h264.ita.eng.sub.ita.eng-MIRCrew
  • by MIRCrew.txt (0.1 KB)
  • The Nun - La vocazione del male (2018).720p.h264.ita.eng.sub.ita.eng-MIRCrew.eng.srt (63.8 KB)
  • The Nun - La vocazione del male (2018).720p.h264.ita.eng.sub.ita.eng-MIRCrew.mkv (1.9 GB)
  • The Nun - La vocazione del male (2018).720p.h264.ita.eng.sub.ita.eng-MIRCrew.NUita.srt (64.3 KB)
  • The Nun - La vocazione del male (2018).720p.h264.ita.eng.sub.ita.eng-MIRCrew.srt (0.9 KB)

There are currently no comments. Feel free to leave one :)

Code:

  • udp://tracker.coppersurfer.tk:6969/announce
  • udp://tracker.torrent.eu.org:451/announce
  • udp://tracker.pirateparty.gr:6969/announce
  • udp://tracker.opentrackr.org:1337/announce
  • udp://tracker.leechers-paradise.org:6969/announce
  • udp://tracker.eddie4.nl:6969/announce
  • udp://shadowshq.yi.org:6969/announce
  • udp://shadowshq.eddie4.nl:6969/announce
  • udp://inferno.demonoid.pw:3391/announce
  • udp://eddie4.nl:6969/announce
  • udp://9.rarbg.to:2730/announce
  • udp://9.rarbg.com:2710/announce
  • udp://9.rarbg.me:2780/announce
  • udp://62.138.0.158:6969/announce
  • udp://151.80.120.114:2710/announce