Black Girl (1966) Criterion + Extras (1080p BluRay x265 HEVC 10bi...

  • Category Movies
  • Type HEVC/x265
  • Language English
  • Total size 6.0 GB
  • Uploaded By QxR
  • Downloads 78
  • Last checked 7 minutes ago
  • Date uploaded 13 hours ago
  • Seeders 29
  • Leechers 14

Black Girl

Drama

Eager to find a better life abroad, a Senegalese woman becomes a mere governess to a family in southern France, suffering from discrimination and marginalization.

Infohash : FEC722D426AAE8B17EE67070E58B37547E5F5881



https://www.imdb.com/title/tt0060758/



Note from Encoder:

Encoded with 2-Pass at 5,000 kb/s, includes English subtitles and extras.





Media Information

Code:

General
Format : Matroska
Format version : Version 4 / Version 2
File size : 2.12 GiB
Duration : 59 min 40 s
Overall bit rate : 5 086 kb/s
Movie name : BLACK GIRL
Encoded date : UTC 2018-11-19 16:51:16
Writing application : mkvmerge v28.1.0 ('Morning Child') 64-bit
Writing library : libebml v1.3.6 + libmatroska v1.4.9
Cover : Yes
Attachments : cover.jpg
Writing frontend : StaxRip v1.7.0.6

Video
ID : 1
Format : HEVC
Format/Info : High Efficiency Video Coding
Format profile : Main [email protected]@Main
Codec ID : V_MPEGH/ISO/HEVC
Duration : 59 min 40 s
Bit rate : 5 005 kb/s
Width : 1 480 pixels
Height : 1 080 pixels
Display aspect ratio : 1.370
Frame rate mode : Constant
Frame rate : 23.976 (24000/1001) FPS
Color space : YUV
Chroma subsampling : 4:2:0
Bit depth : 10 bits
Bits/(Pixel*Frame) : 0.131
Stream size : 2.09 GiB (98%)
Title : Encoded by r00t
Writing library : x265 2.9+8-27d8424c799d:[Windows][MSVC 1915][64 bit] 10bit
Encoding settings : cpuid=1111039 / frame-threads=2 / numa-pools=4 / wpp / no-pmode / no-pme / no-psnr / no-ssim / log-level=2 / input-csp=1 / input-res=1480x1080 / interlace=0 / total-frames=85849 / level-idc=0 / high-tier=1 / uhd-bd=0 / ref=4 / no-allow-non-conformance / no-repeat-headers / annexb / no-aud / no-hrd / info / hash=0 / no-temporal-layers / open-gop / min-keyint=23 / keyint=250 / gop-lookahead=0 / bframes=4 / b-adapt=2 / b-pyramid / bframe-bias=0 / rc-lookahead=25 / lookahead-slices=4 / scenecut=40 / radl=0 / no-intra-refresh / ctu=64 / min-cu-size=8 / no-rect / no-amp / max-tu-size=32 / tu-inter-depth=1 / tu-intra-depth=1 / limit-tu=0 / rdoq-level=2 / dynamic-rd=0.00 / no-ssim-rd / signhide / no-tskip / nr-intra=0 / nr-inter=0 / no-constrained-intra / no-strong-intra-smoothing / max-merge=3 / limit-refs=3 / limit-modes / me=3 / subme=3 / merange=57 / temporal-mvp / weightp / no-weightb / no-analyze-src-pics / deblock=0:0 / sao / no-sao-non-deblock / rd=4 / no-early-skip / no-rskip / no-fast-intra / no-tskip-fast / no-cu-lossless / no-b-intra / no-splitrd-skip / rdpenalty=0 / psy-rd=4.00 / psy-rdoq=10.00 / no-rd-refine / no-lossless / cbqpoffs=0 / crqpoffs=0 / rc=abr / bitrate=5000 / qcomp=0.60 / qpstep=1 / stats-write=0 / stats-read=2 / cplxblur=20.0 / qblur=0.5 / ipratio=1.10 / pbratio=1.00 / aq-mode=3 / aq-strength=1.00 / no-cutree / zone-count=0 / no-strict-cbr / qg-size=32 / rc-grain / qpmax=69 / qpmin=0 / const-vbv / sar=0 / overscan=0 / videoformat=5 / range=0 / colorprim=2 / transfer=2 / colormatrix=2 / chromaloc=0 / display-window=0 / max-cll=0,0 / min-luma=0 / max-luma=1023 / log2-max-poc-lsb=8 / vui-timing-info / vui-hrd-info / slices=1 / no-opt-qp-pps / no-opt-ref-list-length-pps / no-multi-pass-opt-rps / scenecut-bias=0.05 / no-opt-cu-delta-qp / no-aq-motion / no-hdr / no-hdr-opt / no-dhdr10-opt / no-idr-recovery-sei / analysis-reuse-level=5 / scale-factor=0 / refine-intra=0 / refine-inter=0 / refine-mv=0 / no-limit-sao / ctu-info=0 / no-lowpass-dct / refine-mv-type=0 / copy-pic=1 / max-ausize-factor=1.0 / no-dynamic-refine / no-single-sei
Default : Yes
Forced : No

Audio
ID : 2
Format : AAC
Format/Info : Advanced Audio Codec
Format profile : LC
Codec ID : A_AAC
Duration : 59 min 40 s
Bit rate : 70.4 kb/s
Channel(s) : 1 channel
Channel positions : Front: C
Sampling rate : 48.0 kHz
Frame rate : 46.875 FPS (1024 spf)
Compression mode : Lossy
Delay relative to video : 20 ms
Stream size : 30.0 MiB (1%)
Language : French
Default : Yes
Forced : No

Subtitle
ID : 3
Format : PGS
Muxing mode : zlib
Codec ID : S_HDMV/PGS
Codec ID/Info : Picture based subtitle format used on BDs/HD-DVDs
Duration : 56 min 24 s
Bit rate : 25.3 kb/s
Count of elements : 838
Stream size : 10.2 MiB (0%)
Language : English
Default : Yes
Forced : No

Menu
00:00:00.000 : en:Chapter 01
00:05:58.608 : en:Chapter 02
00:09:55.011 : en:Chapter 03
00:13:14.835 : en:Chapter 04
00:17:04.106 : en:Chapter 05
00:19:48.478 : en:Chapter 06
00:21:07.933 : en:Chapter 07
00:22:30.932 : en:Chapter 08
00:24:29.759 : en:Chapter 09
00:29:57.045 : en:Chapter 10
00:37:41.467 : en:Chapter 11
00:40:53.492 : en:Chapter 12
00:47:52.578 : en:Chapter 13
00:51:20.660 : en:Chapter 14
00:53:24.659 : en:Chapter 15

Source Information

Code:

Release:
Black Girl Criterion ISO (45.3 GB)


Note From QxR:

Quote:

Whilst we are happy for our releases to be re-posted on a platform we aren't on, please do so in an 'as-is' format. We ask that you do not create a new torrent, include all descriptions you see above including the QxR logo, tags, notes and screenshots. If you'd like to become a permanent poster on a website we don't post to, feel free to get in contact with a QxR member.


Files:

Black Girl (1966) Criterion + Extras (1080p BluRay x265 HEVC 10bit AAC 1.0 French r00t)
  • Black Girl (1966) Criterion (1080p BluRay x265 r00t).mkv (2.1 GB)
  • Featurettes
    • Alternate Color Sequence.mkv (25.7 MB)
    • Borom Sarret (1963) - Short Film.mkv (554.4 MB)
    • Interviews
      • Actor M’Bissine Thérèse Diop.mkv (356.4 MB)
      • Scholar Manthia Diawara.mkv (699.9 MB)
      • Scholar Samba Gadjigo.mkv (308.5 MB)
    • On Borom Sarret - Featurette.mkv (340.0 MB)
    • Sembène accepting the Prix Jean Vigo for Black Girl (Excerpt from 1966 broadcast of JT de 20h).mkv (37.3 MB)
    • Sembène, The Making of African Cinema (1994) - Documentary.mkv (1.6 GB)
    • Trailer.mkv (24.3 MB)

Comments

Code:

  • udp://tracker.coppersurfer.tk:6969/announce
  • udp://tracker.opentrackr.org:1337/announce
  • udp://tracker.zer0day.to:1337/announce
  • udp://tracker.torrent.eu.org:451/announce
  • udp://tracker.leechers-paradise.org:6969/announce
  • udp://p4p.arenabg.com:1337/announce
  • udp://tracker.internetwarriors.net:1337/announce
/08/e7/ff/08e7ffd6a1ad8052c7c702273b643766.js'>