Trevor Noah Son Of Patricia 2018 Movies 720p HDRip x264 5.1 MSubs...

  • Category Movies
  • Type HD
  • Language English
  • Total size 705.3 MB
  • Uploaded By nehalpuja
  • Downloads 72
  • Last checked 13 minutes ago
  • Date uploaded 15 hours ago
  • Seeders 3
  • Leechers 70

Trevor Noah: Son of Patricia

ComedyTV Movie

Trevor Noah gets out from behind the "Daily Show" desk and takes the stage for a stand-up special that touches on racism, immigration, camping and more.

Infohash : 5CAE05D5F23E5AA504A548B4C755B5ACF1090221

Trevor Noah Son Of Patricia 2018 Movies 720p HDRip x264 5.1 MSubs with Sample ☻rDX☻
===============================================================================================

SCREEN SHOTS:



or

https://iphonehosting.eu/2018/11/b/power/1.html

File size : 677 MiB
Duration : 1 h 3 min
Overall bit rate mode : Variable
Overall bit rate : 1 480 kb/s
Movie name : Trevor Noah Son Of Patricia 2018 Movies 720p HDRip x264 5.1 MSubs ☻rDX☻

Video
ID : 2
Format : AVC
Format/Info : Advanced Video Codec
Format profile : [email protected]
Format settings, CABAC : Yes
Format settings, ReFrames : 3 frames
Codec ID : V_MPEG4/ISO/AVC
Duration : 1 h 3 min
Bit rate mode : Variable
Bit rate : 1 100 kb/s
Maximum bit rate : 1 650 kb/s
Width : 1 280 pixels
Height : 720 pixels
Display aspect ratio : 16:9
Frame rate mode : Constant
Frame rate : 23.976 (24000/1001) FPS
Color space : YUV
Chroma subsampling : 4:2:0
Bit depth : 8 bits
Scan type : Progressive
Bits/(Pixel*Frame) : 0.050
Stream size : 488 MiB (72%)
Title : ☻rDX☻
Writing library : x264

Audio
ID : 1
Format : AC-3
Format/Info : Audio Coding 3
Mode extension : CM (complete main)
Format settings, Endianness : Big
Codec ID : A_AC3
Duration : 1 h 3 min
Bit rate mode : Constant
Bit rate : 384 kb/s
Channel(s) : 6 channels
Channel positions : Front: L C R, Side: L R, LFE
Sampling rate : 48.0 kHz
Frame rate : 31.250 FPS (1536 spf)
Bit depth : 16 bits
Compression mode : Lossy
Stream size : 176 MiB (26%)
Title : ☻rDX☻
Language : English
Default : Yes
Forced : No

Text #1
ID : 3
Format : UTF-8
Codec ID : S_TEXT/UTF8
Codec ID/Info : UTF-8 Plain Text
Title : ☻rDX☻
Language : English
Default : No
Forced : No

Text #2
ID : 4
Format : UTF-8
Codec ID : S_TEXT/UTF8
Codec ID/Info : UTF-8 Plain Text
Title : ☻rDX☻
Language : French
Default : No
Forced : No

Text #3
ID : 5
Format : UTF-8
Codec ID : S_TEXT/UTF8
Codec ID/Info : UTF-8 Plain Text
Title : ☻rDX☻
Language : German
Default : No
Forced : No

Text #4
ID : 6
Format : UTF-8
Codec ID : S_TEXT/UTF8
Codec ID/Info : UTF-8 Plain Text
Title : ☻rDX☻
Language : Greek
Default : No
Forced : No

Text #5
ID : 7
Format : UTF-8
Codec ID : S_TEXT/UTF8
Codec ID/Info : UTF-8 Plain Text
Title : ☻rDX☻
Language : Italian
Default : No
Forced : No

https://www.imdb.com/title/tt9170648

Files:

Trevor Noah Son Of Patricia 2018 Movies 720p HDRip x264 5.1 MSubs with Sample ☻rDX☻
  • Sample ~ Trevor Noah Son Of Patricia 2018 Movies 720p HDRip x264 5.1 MSubs ☻rDX☻.mkv (28.1 MB)
  • Trevor Noah Son Of Patricia 2018 Movies 720p HDRip x264 5.1 MSubs ☻rDX☻.mkv (677.3 MB)

There are currently no comments. Feel free to leave one :)

Code:

  • udp://tracker.coppersurfer.tk:6969/announce
  • udp://tracker.leechers-paradise.org:6969/announce
  • udp://tracker.pirateparty.gr:6969/announce
  • udp://eddie4.nl:6969/announce
  • udp://tracker.zer0day.to:1337/announce
  • udp://9.rarbg.me:2710/announce
  • udp://9.rarbg.to:2710/announce
  • udp://public.popcorn-tracker.org:6969/announce
  • udp://p4p.arenabg.ch:1337/announce
  • udp://tracker.vanitycore.co:6969/announce
  • udp://ipv4.tracker.harry.lu:80/announce
  • udp://tracker.opentrackr.org:1337/announce
  • udp://p4p.arenabg.com:1337/announce
  • udp://shadowshq.yi.org:6969/announce
/08/e7/ff/08e7ffd6a1ad8052c7c702273b643766.js'>