Richard Pryor Here and Now (1983) 1080p x264 Phun Psyz

  • Category Movies
  • Type HD
  • Language English
  • Total size 1.6 GB
  • Uploaded By PhunPsyz
  • Downloads 280
  • Last checked 14 minutes ago
  • Date uploaded 16 hours ago
  • Seeders 35
  • Leechers 28

Richard Pryor: Here and Now

Comedy

Part live stand-up performance, part documentary, this film is one of comedian Richard Pryor's later stand-up performances. As foul-mouthed as ever, Pryor touches on most of the same topics as in his previous live shows.

Infohash : B9D6028195CF4B8423F325614181F4A1B4193505

www.imdb.com/title/tt0086194/

Part live stand-up performance, part documentary, this film is one of comedian Richard Pryor's later stand-up performances. As foul-mouthed as ever, Pryor touches on most of the same topics as in his previous live shows.

Source: monkee (Amzn)






Format : MPEG-4
Format profile : Base Media / Version 2
Codec ID : mp42 (isom/iso2/avc1/mp41)
File size : 1.61 GiB
Duration : 1 h 34 min
Overall bit rate mode : Variable
Overall bit rate : 2 432 kb/s

Video
ID : 1
Format : AVC
Format/Info : Advanced Video Codec
Format profile : [email protected]
Format settings : CABAC / 1 Ref Frames
Format settings, CABAC : Yes
Format settings, ReFrames : 1 frame
Codec ID : avc1
Codec ID/Info : Advanced Video Coding
Duration : 1 h 34 min
Bit rate : 2 266 kb/s
Width : 1 920 pixels
Height : 1 080 pixels
Display aspect ratio : 16:9
Frame rate mode : Variable
Frame rate : 23.976 (24000/1001) FPS
Minimum frame rate : 23.974 FPS
Maximum frame rate : 23.981 FPS
Color space : YUV
Chroma subsampling : 4:2:0
Bit depth : 8 bits
Scan type : Progressive
Bits/(Pixel*Frame) : 0.046
Stream size : 1.50 GiB (93%)
Writing library : x264 core 155 r2893 b00bcaf

Audio
ID : 2
Format : AAC LC
Format/Info : Advanced Audio Codec Low Complexity
Codec ID : mp4a-40-2
Duration : 1 h 34 min
Bit rate mode : Variable
Bit rate : 160 kb/s
Channel(s) : 2 channels
Channel layout : L R
Sampling rate : 48.0 kHz
Frame rate : 46.875 FPS (1024 SPF)
Compression mode : Lossy
Stream size : 109 MiB (7%)
Title : Stereo / Stereo

Text
Language : English
Default : Yes
Forced : No

Files:

  • Richard Pryor Here and Now (1983) 1080p x264 Phun Psyz.mp4 (1.6 GB)

There are currently no comments. Feel free to leave one :)

Code:

  • udp://tracker.opentrackr.org:1337/announce
  • udp://public.popcorn-tracker.org:6969/announce
  • udp://tracker.coppersurfer.tk:6969/announce
  • udp://tracker.pirateparty.gr:6969/announce
  • udp://tracker.internetwarriors.net:1337/announce
  • udp://tracker.torrent.eu.org:451/announce
  • udp://tracker.tiny-vps.com:6969/announce
  • udp://explodie.org:6969/announce
  • http://explodie.org:6969/announce
  • http://open.acgtracker.com:1096/announce
  • udp://182.176.139.129:6969/announce
  • udp://tracker.justseed.it:1337/announce
/08/e7/ff/08e7ffd6a1ad8052c7c702273b643766.js'>