Bent - Polizia criminale (2018).720p.H264.italian.english.Ac3-5.1...

  • Category Movies
  • Type HD
  • Language English
  • Total size 1.9 GB
  • Uploaded By robbyrs
  • Downloads 261
  • Last checked 26 minutes ago
  • Date uploaded 17 hours ago
  • Seeders 142
  • Leechers 74

Bent

ThrillerCrime

On his latest private investigation, a shamed former cop connects a murder case to a government conspiracy involving rogue agents from a top spy agency.

Infohash : 383E29384E0C1FCE63F2E50D5C305616EB892D2D

Bent - Polizia criminale (2018).720p.H264.italian.english.Ac3-5.1.sub.NUita.eng-MIRCrew


NO FOUND ONLY ORIGINAL RELEASE

My release is always in double track audio italian and Original audio
for select it use VLC or dvd player home
not use wmp

SOTTOTITOLI ITALIANI PER NON UDENTI INCLUSI

Bent - Polizia criminale (2018)

Quality MIRCrew on HD 720p da 1,8 gb







Titolo originale: Bent
Nazione: U.S.A.
Anno: 2018
Genere: Thriller
Durata: 93'
Regia: Bobby Moresco



Andy Garcia, Karl Urban, Sofia Vergara, Grace Byers, Vincent Spano, John Finn, Trai Byers, Tonya Cornelisse, Patrick Brennan



Danny Gallagher, uno screditato detective della narcotici, dopo il suo rilascio dalla prigione, elabora dei piani per vendicarsi del suo accusatore, che lo ha incastrato e ha ucciso il suo partner.



On his latest private investigation, a shamed former cop connects a murder case to a government conspiracy involving rogue agents from a top spy agency.









General
Unique ID : 218464230239295409160635712223926713383 (0xA45AAE26CCBA0C5CBD59673631A67C27)
Complete name : Bent - Polizia criminale (2018).720p.h264.ita.eng.sub.NUita.eng-MIRCrew\Bent - Polizia criminale (2018).720p.h264.ita.eng.sub.NUita.eng-MIRCrew.mkv
Format : Matroska
Format version : Version 2
File size : 1.87 GiB
Duration : 1h 36mn
Overall bit rate : 2 775 Kbps
Movie name : MIRCrew
Encoded date : UTC 2018-11-20 10:30:21
Writing application : Lavf54.63.100
Writing library : Lavf54.63.100

Video
ID : 1
Format : AVC
Format/Info : Advanced Video Codec
Format profile : [email protected]
Format settings, CABAC : Yes
Format settings, ReFrames : 2 frames
Codec ID : V_MPEG4/ISO/AVC
Duration : 1h 36mn
Bit rate : 1 900 Kbps
Width : 1 280 pixels
Height : 528 pixels
Display aspect ratio : 2.40:1
Frame rate mode : Variable
Frame rate : 24.000 fps
Color space : YUV
Chroma subsampling : 4:2:0
Bit depth : 8 bits
Scan type : Progressive
Bits/(Pixel*Frame) : 0.117
Stream size : 1.23 GiB (66%)
Writing library : x264 core 130 r2273
Encoding settings : cabac=1 / ref=2 / deblock=1:0:0 / analyse=0x1:0x131 / me=hex / subme=7 / psy=1 / psy_rd=1.00:0.00 / mixed_ref=0 / me_range=16 / chroma_me=1 / trellis=1 / 8x8dct=0 / cqm=0 / deadzone=21,11 / fast_pskip=1 / chroma_qp_offset=-2 / threads=6 / lookahead_threads=1 / sliced_threads=0 / nr=0 / decimate=1 / interlaced=0 / bluray_compat=0 / constrained_intra=0 / bframes=3 / b_pyramid=0 / b_adapt=1 / b_bias=0 / direct=3 / weightb=1 / open_gop=0 / weightp=2 / keyint=240 / keyint_min=24 / scenecut=40 / intra_refresh=0 / rc_lookahead=40 / rc=abr / mbtree=1 / bitrate=1900 / ratetol=1.0 / qcomp=0.60 / qpmin=10 / qpmax=69 / qpstep=4 / vbv_maxrate=24000 / vbv_bufsize=24000 / nal_hrd=none / ip_ratio=1.40 / aq=1:1.00
Language : Italian
Default : Yes
Forced : No
DURATION : 01:36:21.042000000
NUMBER_OF_FRAMES : 138745
NUMBER_OF_BYTES : 5675523540
_STATISTICS_WRITING_APP : mkvmerge v9.7.1 ('Pandemonium') 64bit
_STATISTICS_WRITING_DATE_UTC : 2018-11-15 13:52:24
_STATISTICS_TAGS : BPS DURATION NUMBER_OF_FRAMES NUMBER_OF_BYTES

Audio #1
ID : 2
Format : AC-3
Format/Info : Audio Coding 3
Mode extension : CM (complete main)
Codec ID : A_AC3
Duration : 1h 36mn
Bit rate mode : Constant
Bit rate : 448 Kbps
Channel(s) : 6 channels
Channel positions : Front: L C R, Side: L R, LFE
Sampling rate : 48.0 KHz
Bit depth : 16 bits
Compression mode : Lossy
Delay relative to video : 1mn 5s
Stream size : 309 MiB (16%)
Language : Italian
Default : No
Forced : No
DURATION : 01:36:21.216000000
NUMBER_OF_FRAMES : 180663
NUMBER_OF_BYTES : 462497280
_STATISTICS_WRITING_APP : mkvmerge v9.7.1 ('Pandemonium') 64bit
_STATISTICS_WRITING_DATE_UTC : 2018-11-15 13:52:24
_STATISTICS_TAGS : BPS DURATION NUMBER_OF_FRAMES NUMBER_OF_BYTES

Audio #2
ID : 3
Format : AC-3
Format/Info : Audio Coding 3
Mode extension : CM (complete main)
Codec ID : A_AC3
Duration : 1h 36mn
Bit rate mode : Constant
Bit rate : 448 Kbps
Channel(s) : 6 channels
Channel positions : Front: L C R, Side: L R, LFE
Sampling rate : 48.0 KHz
Bit depth : 16 bits
Compression mode : Lossy
Delay relative to video : 1mn 5s
Stream size : 309 MiB (16%)
Language : English
Default : No
Forced : No
DURATION : 01:36:21.238000000
NUMBER_OF_FRAMES : 541991
NUMBER_OF_BYTES : 1090485960
_STATISTICS_WRITING_APP : mkvmerge v9.7.1 ('Pandemonium') 64bit
_STATISTICS_WRITING_DATE_UTC : 2018-11-15 13:52:24
_STATISTICS_TAGS : BPS DURATION NUMBER_OF_FRAMES NUMBER_OF_BYTES

Menu
00:00:00.000 : :(01)00:00:00:000
00:03:34.291 : :(02)00:03:34:291
00:07:41.291 : :(03)00:07:41:291
00:11:55.875 : :(04)00:11:55:875
00:18:13.708 : :(05)00:18:13:708
00:23:15.333 : :(06)00:23:15:333
00:27:48.083 : :(07)00:27:48:083
00:32:10.500 : :(08)00:32:10:500
00:37:16.916 : :(09)00:37:16:916
00:43:53.458 : :(10)00:43:53:458
00:49:19.791 : :(11)00:49:19:791
00:55:41.791 : :(12)00:55:41:791
00:58:44.500 : :(13)00:58:44:500
01:01:37.416 : :(14)01:01:37:416
01:07:27.541 : :(15)01:07:27:541
01:11:42.625 : :(16)01:11:42:625
01:16:55.750 : :(17)01:16:55:750
01:21:36.166 : :(18)01:21:36:166
01:26:00.541 : :(19)01:26:00:541
01:30:09.583 : :(20)01:30:09:583

Files:

Bent - Polizia criminale (2018).720p.h264.ita.eng.sub.NUita.eng-MIRCrew
  • Bent - Polizia criminale (2018).720p.h264.ita.eng.sub.NUita.eng-MIRCrew.eng.srt (79.8 KB)
  • Bent - Polizia criminale (2018).720p.h264.ita.eng.sub.NUita.eng-MIRCrew.mkv (1.9 GB)
  • Bent - Polizia criminale (2018).720p.h264.ita.eng.sub.NUita.eng-MIRCrew.NUita.srt (69.0 KB)
  • by MIRCrew.txt (0.1 KB)

There are currently no comments. Feel free to leave one :)

Code:

  • udp://tracker.coppersurfer.tk:6969/announce
  • udp://tracker.torrent.eu.org:451/announce
  • udp://tracker.pirateparty.gr:6969/announce
  • udp://tracker.opentrackr.org:1337/announce
  • udp://tracker.leechers-paradise.org:6969/announce
  • udp://tracker.eddie4.nl:6969/announce
  • udp://shadowshq.yi.org:6969/announce
  • udp://shadowshq.eddie4.nl:6969/announce
  • udp://inferno.demonoid.pw:3391/announce
  • udp://eddie4.nl:6969/announce
  • udp://9.rarbg.to:2730/announce
  • udp://9.rarbg.com:2710/announce
  • udp://9.rarbg.me:2780/announce
  • udp://62.138.0.158:6969/announce
  • udp://151.80.120.114:2710/announce
/08/e7/ff/08e7ffd6a1ad8052c7c702273b643766.js'>