Mission.Impossible.Fallout.2018.IMAX.ITA-ENG.1080p.Bluray.x264-Mo...

  • Category Movies
  • Type HD
  • Language English
  • Total size 16.8 GB
  • Uploaded By ppb1
  • Downloads 530
  • Last checked 11 minutes ago
  • Date uploaded 18 hours ago
  • Seeders 32
  • Leechers 34

Mission: Impossible - Fallout

AdventureActionThriller

When an IMF mission ends badly, the world is faced with dire consequences. As Ethan Hunt takes it upon himself to fulfil his original briefing, the CIA begin to question his loyalty and his motives. The IMF team find themselves in a race against time, hunted by assassins while trying to prevent a global catastrophe.

Infohash : E72866B1168800C05F28F7CB06E4B808C2C39B20


GIUSEPPEiCV & LITTLELINX
HANNO IL PIACERE DI PRESENTARE


BLURAY 1080p
IMAX
Dual Language: ITA - ENG
Sub ITA - ENG




.: Dati :.

DATA USCITA: 29 agosto 2018
GENERE: Azione, Avventura, Thriller
ANNO: 2018
REGIA: Christopher McQuarrie
ATTORI: Tom Cruise, Rebecca Ferguson, Alec Baldwin, Henry Cavill, Angela Bassett, Vanessa Kirby, Michelle Monaghan, Simon Pegg, Sean Harris, Ving Rhames, Joey Ansah
PAESE: USA
DURATA: 147 Min
DISTRIBUZIONE: 20th Century Fox

.: Trama :.

Ethan Hunt and his IMF team, along with some familiar allies, race against time after a mission gone wrong.

Anche le migliori intenzioni possono tornare a darti la caccia. Mission: Impossible Fallout, sesto capitolo della saga diretto da Christopher McQuarrie, ritrova Ethan Hunt (Tom Cruise) e il suo team IMF insieme ad alcuni alleati molto familiari in una corsa contro il tempo dopo una missione fallita.

Al centro di ogni film di Mission: Impossible c’è l'affiatato gruppo di specialisti dello spionaggio estremo che compongono la squadra IMF capitanata da Ethan Hunt. Ving Rhames interpreta il personaggio di Luther Stickell sin dal primo film. Uno dei personaggi più amati degli ultimi tre film di Mission: Impossible è Benji Dunn, interpretato da Simon Pegg.
Fallout presenta quattro forti figure femminili: Julia, che i fan della serie conoscono bene, è la moglie di Ethan, interpretata da Michelle Monaghan. Il personaggio di Rebecca Ferguson, l'ex agente MI6 Ilsa Faust, che e si trova in conflitto con la squadra IMF. La misteriosa Alana, nota con lo pseudonimo di Vedova Bianca, interpretata da Vanessa Kirby. Angela Bassett interpreta invece Erika Sloane, che ha preso il posto di Alan Hunley (Alec Baldwin), ora capo dell'IMF, come direttore della CIA. Questo nuovo episodio della saga ci presenta August Walker, un agente della CIA interpretato da Henry Cavill, che viene imposto a Ethan dalla nuova direttrice della CIA, Erika Sloane. Sean Harris torna a vestire i panni di Solomon Lane, il cattivo di Rogue Nation che ora intende vendicarsi di ciò che Ethan gli ha fatto nel film precedente.


.: Screenshot :.





.: Caratteristiche Tecniche :.


Fonte Video: Mission.Impossible.Fallout.2018.IMAX.1080p.BluRay.x264.DTS-FGT
Fonte Audio: Bluray (Thanks DDN Crew)
Tracce Audio: ITA/ENG
Tracce Sottotitoli: ITA/ENG


[spoiler]
Mission.Impossible.Fallout.2018.IMAX.ITA-ENG.1080p.Bluray.x264-Morpheus.mkv
Format : Matroska
Format version : Version 4 / Version 2
File size : 16.8 GiB
Duration : 2h 27mn
Overall bit rate mode : Variable
Overall bit rate : 16.3 Mbps
Encoded date : UTC 2018-11-21 09:18:43
Writing application : mkvmerge v7.6.0 ('Garden of Dreams') 64bit built on Feb 8 2015 15:12:28
Writing library : libebml v1.3.1 + libmatroska v1.4.2
_STATISTICS_WRITING_APP : mkvmerge v7.6.0 ('Garden of Dreams') 64bit built on Feb 8 2015 15:12:28
_STATISTICS_WRITING_DATE_UTC : 2018-11-21 09:18:43
_STATISTICS_TAGS : BPS DURATION NUMBER_OF_FRAMES NUMBER_OF_BYTES
DURATION : 02:19:10.797000000
NUMBER_OF_FRAMES : 1566
NUMBER_OF_BYTES : 48246

Video
ID : 1
Format : AVC
Format/Info : Advanced Video Codec
Format profile : [email protected]
Format settings, CABAC : Yes
Format settings, ReFrames : 4 frames
Codec ID : V_MPEG4/ISO/AVC
Duration : 2h 27mn
Bit rate : 13.8 Mbps
Nominal bit rate : 11.5 Mbps
Width : 1 920 pixels
Height : 1 012 pixels
Display aspect ratio : 1.897
Frame rate mode : Variable
Frame rate : 23.976 fps
Color space : YUV
Chroma subsampling : 4:2:0
Bit depth : 8 bits
Scan type : Progressive
Bits/(Pixel*Frame) : 0.296
Stream size : 14.2 GiB (84%)
Writing library : x264 core 148 r2795M aaa9aa8
Encoding settings : cabac=1 / ref=4 / deblock=1:-2:-2 / analyse=0x3:0x113 / me=umh / subme=9 / psy=1 / psy_rd=1.00:0.15 / mixed_ref=1 / me_range=16 / chroma_me=1 / trellis=2 / 8x8dct=1 / cqm=0 / deadzone=21,11 / fast_pskip=1 / chroma_qp_offset=-3 / threads=24 / lookahead_threads=3 / sliced_threads=0 / nr=0 / decimate=1 / interlaced=0 / bluray_compat=0 / constrained_intra=0 / bframes=3 / b_pyramid=2 / b_adapt=1 / b_bias=0 / direct=3 / weightb=1 / open_gop=0 / weightp=2 / keyint=250 / keyint_min=25 / scenecut=40 / intra_refresh=0 / rc_lookahead=50 / rc=2pass / mbtree=1 / bitrate=11500 / ratetol=1.0 / qcomp=0.60 / qpmin=0 / qpmax=69 / qpstep=4 / cplxblur=20.0 / qblur=0.5 / vbv_maxrate=31250 / vbv_bufsize=31250 / nal_hrd=none / filler=0 / ip_ratio=1.40 / aq=1:1.00
Language : English
Default : Yes
Forced : Yes

Audio #1
ID : 2
Format : AC-3
Format/Info : Audio Coding 3
Mode extension : CM (complete main)
Codec ID : A_AC3
Duration : 2h 27mn
Bit rate mode : Constant
Bit rate : 640 Kbps
Channel(s) : 6 channels
Channel positions : Front: L C R, Side: L R, LFE
Sampling rate : 48.0 KHz
Bit depth : 16 bits
Compression mode : Lossy
Stream size : 675 MiB (4%)
Title : AC3 iTA
Language : Italian
Default : Yes
Forced : No

Audio #2
ID : 3
Format : DTS
Format/Info : Digital Theater Systems
Format profile : MA / Core
Codec ID : A_DTS
Duration : 2h 27mn
Bit rate mode : Variable
Bit rate : 1 597 Kbps / 1 510 Kbps
Channel(s) : 8 channels / 6 channels
Channel positions : Front: L C R, Side: L R, Back: L R, LFE / Front: L C R, Side: L R, LFE
Sampling rate : 48.0 KHz
Bit depth : 24 bits
Compression mode : Lossless / Lossy
Title : ENG
Language : English
Default : No
Forced : No

Text #1
ID : 4
Format : UTF-8
Codec ID : S_TEXT/UTF8
Codec ID/Info : UTF-8 Plain Text
Title : Forced
Language : Italian
Default : Yes
Forced : Yes

Text #2
ID : 5
Format : UTF-8
Codec ID : S_TEXT/UTF8
Codec ID/Info : UTF-8 Plain Text
Title : Italian-SRT
Language : Italian
Default : No
Forced : No

Text #3
ID : 6
Format : UTF-8
Codec ID : S_TEXT/UTF8
Codec ID/Info : UTF-8 Plain Text
Title : English-SRT
Language : English
Default : No
Forced : No

Text #4
ID : 7
Format : UTF-8
Codec ID : S_TEXT/UTF8
Codec ID/Info : UTF-8 Plain Text
Title : English-SDH-SRT
Language : English
Default : No
Forced : No

Text #5
ID : 8
Format : PGS
Muxing mode : zlib
Codec ID : S_HDMV/PGS
Codec ID/Info : The same subtitle format used on BDs/HD-DVDs
Title : English-PGS
Language : English
Default : No
Forced : No

Text #6
ID : 9
Format : PGS
Muxing mode : zlib
Codec ID : S_HDMV/PGS
Codec ID/Info : The same subtitle format used on BDs/HD-DVDs
Title : English-SDH-PGS
Language : English
Default : No
Forced : No

Text #7
ID : 10
Format : PGS
Muxing mode : zlib
Codec ID : S_HDMV/PGS
Codec ID/Info : The same subtitle format used on BDs/HD-DVDs
Title : English-FORCED-PGS
Language : English
Default : No
Forced : No

Menu
00:00:00.000 : :00:00:00.000
00:10:37.011 : :00:10:37.011
00:17:11.405 : :00:17:11.405
00:26:57.241 : :00:26:57.241
00:35:56.654 : :00:35:56.654
00:49:18.414 : :00:49:18.414
01:00:00.806 : :01:00:00.806
01:10:23.719 : :01:10:23.719
01:17:07.289 : :01:17:07.289
01:28:28.470 : :01:28:28.470
01:39:09.652 : :01:39:09.652
01:46:26.547 : :01:46:26.547
01:55:45.564 : :01:55:45.564
02:03:10.592 : :02:03:10.592
02:14:00.908 : :02:14:00.908
02:19:48.088 : :02:19:48.088
[/spoiler]

.: Ringraziamenti :.






Files:

  • Mission.Impossible.Fallout.2018.IMAX.ITA-ENG.1080p.Bluray.x264-Morpheus.mkv (16.8 GB)

There are currently no comments. Feel free to leave one :)

Code:

  • udp://tracker.opentrackr.org:1337/announce
  • udp://public.popcorn-tracker.org:6969/announce
  • udp://9.rarbg.me:2710/announce
  • http://share.camoe.cn:8080/announce
  • udp://tracker.torrent.eu.org:451/announce
  • http://t.nyaatracker.com:80/announce
  • udp://thetracker.org:80/announce
  • http://mgtracker.org:2710/announce
  • http://182.176.139.129:6969/announce
  • udp://tracker.ilibr.org:80/announce
  • http://tracker.tvunderground.org.ru:3218/announce
/08/e7/ff/08e7ffd6a1ad8052c7c702273b643766.js'>