Tigers (2018) Hindi 720p WEB-HD x264 AC3 ESubs-Sun George

  • Category Movies
  • Type Bollywood
  • Language Hindi
  • Total size 1.5 GB
  • Uploaded By Sungeorge
  • Downloads 2987
  • Last checked 21 minutes ago
  • Date uploaded 20 hours ago
  • Seeders 140
  • Leechers 244

Tigers

DramaThriller

Ayan, a pharmaceutical salesman in Pakistan, takes on the multinational health care corporation he works for after he realizes they knowingly marketed a baby formula that's responsible for the death of hundreds of babies everyday.

Infohash : 45576438E0D23441CD7534372B2C7162DAD61D6F

Tigers (2018) Hindi 720p WEB-HD x264 AC3 ESubs-Sun George



https://www.imdb.com/title/tt3004774/






===================================================================


General
Format : Matroska
Format version : Version 4 / Version 2
File size : 1.48 GiB
Duration : 1 h 29 min
Overall bit rate : 2 367 kb/s
Movie name : Tigers (2018) Hindi 720p WEB-HD x264 AC3 ESubs-Sun George


===================================================================


Video
ID : 1
Format : AVC
Format/Info : Advanced Video Codec
Format profile : [email protected]
Format settings : CABAC / 5 Ref Frames
Format settings, CABAC : Yes
Format settings, RefFrames : 5 frames
Codec ID : V_MPEG4/ISO/AVC
Duration : 1 h 29 min
Bit rate : 2 200 kb/s
Width : 1 280 pixels
Height : 720 pixels
Display aspect ratio : 16:9
Frame rate mode : Constant
Frame rate : 25.000 FPS
Color space : YUV
Chroma subsampling : 4:2:0
Bit depth : 8 bits
Scan type : Progressive
Bits/(Pixel*Frame) : 0.095
Stream size : 1.36 GiB (92%)
Title : Sun George


===================================================================


Audio
ID : 2
Format : AC-3
Format/Info : Audio Coding 3
Codec ID : A_AC3
Duration : 1 h 29 min
Bit rate mode : Constant
Bit rate : 192 kb/s
Channel(s) : 2 channels
Channel positions : Front: L R
Sampling rate : 48.0 kHz
Frame rate : 31.250 FPS (1536 SPF)
Bit depth : 16 bits
Compression mode : Lossy
Stream size : 123 MiB (8%)
Title : Sun George
Language : Hindi
Service kind : Complete Main
Default : Yes
Forced : No

Text
ID : 3
Format : UTF-8
Codec ID : S_TEXT/UTF8
Codec ID/Info : UTF-8 Plain Text
Duration : 1 h 24 min
Bit rate : 65 b/s
Count of elements : 1277
Stream size : 40.6 KiB (0%)
Title : Sun George
Language : English
Default : Yes
Forced : Yes












Files:

Tigers (2018) Hindi 720p WEB-HD x264 AC3 ESubs-Sun George
  • Tigers (2018) Hindi 720p WEB-HD x264 AC3 ESubs-Sun George.mkv (1.5 GB)
  • Sample Tigers (2018) Hindi 720p WEB-HD x264 AC3 ESubs-Sun George.mkv (34.5 MB)
  • INFO.NFO (0.1 KB)

Comments

Code:

  • udp://tracker.publicbt.com:80/announce
  • udp://tracker.pirateparty.gr:6969/announce
  • udp://tracker.tiny-vps.com:6969/announce
  • udp://9.rarbg.me:2800/announce
  • udp://9.rarbg.to:2720/announce
  • udp://public.popcorn-tracker.org:6969/announce
  • udp://open.stealth.si:80/announce
  • udp://tracker.vanitycore.co:6969/announce
  • udp://tracker.opentrackr.org:1337/announce
  • udp://bt.firebit.co.uk:6969/announce
  • udp://shadowshq.yi.org:6969/announce
  • udp://tracker.zer0day.to:1337/announce
  • udp://coppersurfer.tk:6969/announce
  • udp://tracker.trackerfix.com:80/announce
  • UDP://TRACKER.COPPERSURFER.TK:6969/ANNOUNCE
/08/e7/ff/08e7ffd6a1ad8052c7c702273b643766.js'>