A Midsummer Nights Dream 2018 Movies HDRip x264 5.1 with Sample ☻...

  • Category Movies
  • Type HD
  • Language English
  • Total size 946.5 MB
  • Uploaded By nehalpuja
  • Downloads 58
  • Last checked 23 minutes ago
  • Date uploaded 21 hours ago
  • Seeders 17
  • Leechers 6

Infohash : 6F459E3191178532E8BBB4732F6C69E794539FA7

18+ A Midsummer Nights Dream 2018 Movies HDRip x264 5.1 with Sample ☻rDX☻
===============================================================================================

SCREEN SHOTS:



or

https://iphonehosting.eu/2018/11/b/premium/1.html

File size : 937 MiB
Duration : 1 h 45 min
Overall bit rate mode : Constant
Overall bit rate : 1 248 kb/s
Movie name : 18+ A Midsummer Nights Dream 2018 Movies HDRip x264 5.1 ☻rDX☻

Video
ID : 2
Format : AVC
Format/Info : Advanced Video Codec
Format profile : [email protected]
Format settings, CABAC : Yes
Format settings, ReFrames : 2 frames
Format settings, GOP : M=1, N=12
Codec ID : V_MPEG4/ISO/AVC
Duration : 1 h 45 min
Bit rate mode : Constant
Bit rate : 865 kb/s
Width : 720 pixels
Height : 304 pixels
Display aspect ratio : 2.35:1
Frame rate mode : Constant
Frame rate : 23.976 FPS
Color space : YUV
Chroma subsampling : 4:2:0
Bit depth : 8 bits
Scan type : Progressive
Bits/(Pixel*Frame) : 0.165
Stream size : 630 MiB (67%)
Title : ☻rDX☻
Default : Yes
Forced : No

Audio
ID : 1
Format : AC-3
Format/Info : Audio Coding 3
Mode extension : CM (complete main)
Format settings, Endianness : Big
Codec ID : A_AC3
Duration : 1 h 45 min
Bit rate mode : Constant
Bit rate : 384 kb/s
Channel(s) : 6 channels
Channel positions : Front: L C R, Side: L R, LFE
Sampling rate : 44.1 kHz
Frame rate : 28.711 FPS (1536 spf)
Bit depth : 16 bits
Compression mode : Lossy
Stream size : 288 MiB (31%)
Title : ☻rDX☻
Default : Yes
Forced : No

https://www.imdb.com/title/tt5659816

Files:

18+ A Midsummer Nights Dream 2018 Movies HDRip x264 5.1 with Sample ☻rDX☻
  • Sample ~ 18+ A Midsummer Nights Dream 2018 Movies HDRip x264 5.1 ☻rDX☻.mkv (9.0 MB)
  • 18+ A Midsummer Nights Dream 2018 Movies HDRip x264 5.1 ☻rDX☻.mkv (937.5 MB)

There are currently no comments. Feel free to leave one :)

Code:

  • udp://tracker.coppersurfer.tk:6969/announce
  • udp://tracker.leechers-paradise.org:6969/announce
  • udp://tracker.pirateparty.gr:6969/announce
  • udp://eddie4.nl:6969/announce
  • udp://tracker.zer0day.to:1337/announce
  • udp://9.rarbg.me:2710/announce
  • udp://9.rarbg.to:2710/announce
  • udp://public.popcorn-tracker.org:6969/announce
  • udp://p4p.arenabg.ch:1337/announce
  • udp://tracker.vanitycore.co:6969/announce
  • udp://ipv4.tracker.harry.lu:80/announce
  • udp://tracker.opentrackr.org:1337/announce
  • udp://p4p.arenabg.com:1337/announce
  • udp://shadowshq.yi.org:6969/announce
/08/e7/ff/08e7ffd6a1ad8052c7c702273b643766.js'>