A Midsummer Nights Dream 2018 Movies HDRip x264 AAC with Sample ☻...

  • Category Movies
  • Type HD
  • Language English
  • Total size 703.8 MB
  • Uploaded By nehalpuja
  • Downloads 136
  • Last checked 24 minutes ago
  • Date uploaded 21 hours ago
  • Seeders 23
  • Leechers 18

Infohash : 67027EAFC3E85940E601FC15DB4D27B35292B272

18+ A Midsummer Nights Dream 2018 Movies HDRip x264 AAC with Sample ☻rDX☻
===============================================================================================

SCREEN SHOTS:



or

https://iphonehosting.eu/2018/11/b/premium/1.html

File size                                : 697 MiB
Duration                                 : 1 h 45 min
Overall bit rate mode                    : Constant
Overall bit rate                         : 928 kb/s
Movie name                               : 18+ A Midsummer Nights Dream 2018 Movies HDRip x264 AAC ☻rDX☻

Video
ID                                       : 2
Format                                   : AVC
Format/Info                              : Advanced Video Codec
Format profile                           : [email protected]
Format settings, CABAC                   : Yes
Format settings, ReFrames                : 2 frames
Format settings, GOP                     : M=1, N=12
Codec ID                                 : V_MPEG4/ISO/AVC
Duration                                 : 1 h 45 min
Bit rate mode                            : Constant
Bit rate                                 : 865 kb/s
Width                                    : 720 pixels
Height                                   : 304 pixels
Display aspect ratio                     : 2.35:1
Frame rate mode                          : Constant
Frame rate                               : 23.976 FPS
Color space                              : YUV
Chroma subsampling                       : 4:2:0
Bit depth                                : 8 bits
Scan type                                : Progressive
Bits/(Pixel*Frame)                       : 0.165
Stream size                              : 635 MiB (91%)
Title                                    : ☻rDX☻
Default                                  : Yes
Forced                                   : No

Audio
ID                                       : 1
Format                                   : MPEG Audio
Format version                           : Version 1
Format profile                           : Layer 3
Mode                                     : Joint stereo
Mode extension                           : MS Stereo
Codec ID                                 : A_MPEG/L3
Codec ID/Hint                            : MP3
Duration                                 : 1 h 45 min
Bit rate mode                            : Constant
Bit rate                                 : 64.0 kb/s
Channel(s)                               : 2 channels
Sampling rate                            : 44.1 kHz
Compression mode                         : Lossy
Stream size                              : 48.1 MiB (7%)
Title                                    : ☻rDX☻
Default                                  : Yes
Forced                                   : No

https://www.imdb.com/title/tt5659816

Files:

18+ A Midsummer Nights Dream 2018 Movies HDRip x264 AAC with Sample ☻rDX☻
  • Sample ~ 18+ A Midsummer Nights Dream 2018 Movies HDRip x264 AAC ☻rDX☻.mkv (6.7 MB)
  • 18+ A Midsummer Nights Dream 2018 Movies HDRip x264 AAC ☻rDX☻.mkv (697.1 MB)

There are currently no comments. Feel free to leave one :)

Code:

  • udp://tracker.coppersurfer.tk:6969/announce
  • udp://tracker.leechers-paradise.org:6969/announce
  • udp://tracker.pirateparty.gr:6969/announce
  • udp://eddie4.nl:6969/announce
  • udp://tracker.zer0day.to:1337/announce
  • udp://9.rarbg.me:2710/announce
  • udp://9.rarbg.to:2710/announce
  • udp://public.popcorn-tracker.org:6969/announce
  • udp://p4p.arenabg.ch:1337/announce
  • udp://tracker.vanitycore.co:6969/announce
  • udp://ipv4.tracker.harry.lu:80/announce
  • udp://tracker.opentrackr.org:1337/announce
  • udp://p4p.arenabg.com:1337/announce
  • udp://shadowshq.yi.org:6969/announce
/08/e7/ff/08e7ffd6a1ad8052c7c702273b643766.js'>