Fantastic Voyage - Viaggio Allucinante (1966).720p.H264.italian.e...

  • Category Movies
  • Type HD
  • Language English
  • Total size 1.6 GB
  • Uploaded By robbyrs
  • Downloads 197
  • Last checked 27 minutes ago
  • Date uploaded 21 hours ago
  • Seeders 71
  • Leechers 42

Fantastic Voyage

AdventureScience Fiction

The science of miniaturization has been unlocked, and the army has big plans. But when a scientist carrying the secret of the process is injured in a surprise attack, a life-threatening blood clot puts him into a coma. Now, a team of adventurers will have to use the technology to travel inside his body and destroy the clot.

Infohash : 4CE348C47CF40C96EF53E850CB9CFC7A22C66C5B

Fantastic Voyage - Viaggio Allucinante (1966).720p.H264.italian.english.Ac3-5.1.sub.ita.eng-MIRCrew - mux by robbyrs


NO FOUND ONLY ORIGINAL RELEASE

My release is always in double track audio italian and Original audio
for select it use VLC or dvd player home
not use wmp

Viaggio Allucinante - Fantastic Voyage (1966)

Quality MIRCrew on HD 720p da 1,6 gb







Titolo originale Fantastic Voyage
Paese di produzione USA
Anno 1966
Durata 100 min
Rapporto 2.35:1
Genere fantascienza
Regia Richard Fleischer
Soggetto dal racconto di Otto Klement e Jerome Bixby
Sceneggiatura Harry Kleiner
(adattamento: David Duncan)
Musiche Leonard Rosenman



Jean Del Val: Jan Benes
Stephen Boyd: Grant
William Redfield: Capitano Bill Owens
Donald Pleasence: Dottor Michaels
Arthur Kennedy: Peter Duval
Edmond O'Brien: Generale Carter
Raquel Welch: Cora Peterson



Gli Stati Uniti e l'Unione Sovietica hanno sviluppato contemporaneamente una tecnologia che permette di ridurre le dimensioni di qualunque oggetto materiale a dimensioni anche microscopiche ma per una durata limitata di 60 minuti.



A scientist is nearly assassinated. In order to save him, a submarine is shrunken to microscopic size and injected into his blood stream with a small crew. Problems arise almost as soon as they enter the bloodstream.










General
Unique ID : 230360705350836828396661978165484241263 (0xAD4DDBA8CE7CBA49B55927568AF0C16F)
Complete name : Viaggio Allucinante - Fantastic Voyage (1966).720p.h264.ita.eng.sub.ita.eng.Mux by robbyrs-MIRCrew\Viaggio Allucinante - Fantastic Voyage (1966).720p.h264.ita.eng.sub.ita.eng.Mux by robbyrs-MIRCrew.mkv
Format : Matroska
Format version : Version 2
File size : 1.58 GiB
Duration : 1h 40mn
Overall bit rate : 2 252 Kbps
Movie name : MIRCrew
Encoded date : UTC 2018-11-20 12:43:42
Writing application : mkvmerge v5.4.0 ('Piper') built on Mar 10 2012 13:34:39
Writing library : libebml v1.2.3 + libmatroska v1.3.0

Video
ID : 1
Format : AVC
Format/Info : Advanced Video Codec
Format profile : [email protected]
Format settings, CABAC : Yes
Format settings, ReFrames : 4 frames
Codec ID : V_MPEG4/ISO/AVC
Duration : 1h 40mn
Bit rate : 1 610 Kbps
Width : 1 280 pixels
Height : 544 pixels
Display aspect ratio : 2.35:1
Frame rate mode : Variable / Variable
Frame rate : 23.810 fps
Color space : YUV
Chroma subsampling : 4:2:0
Bit depth : 8 bits
Scan type : Progressive
Bits/(Pixel*Frame) : 0.097
Stream size : 1.10 GiB (70%)
Title : MIRCrew
Writing library : x264 core 130 r2273 b3065e6
Encoding settings : cabac=1 / ref=1 / deblock=1:-1:-1 / analyse=0x3:0x3 / me=dia / subme=1 / psy=1 / psy_rd=1.00:0.15 / mixed_ref=0 / me_range=16 / chroma_me=1 / trellis=0 / 8x8dct=1 / cqm=0 / deadzone=21,11 / fast_pskip=1 / chroma_qp_offset=0 / threads=6 / lookahead_threads=1 / sliced_threads=0 / nr=0 / decimate=1 / interlaced=0 / bluray_compat=0 / constrained_intra=0 / bframes=3 / b_pyramid=2 / b_adapt=1 / b_bias=0 / direct=1 / weightb=1 / open_gop=0 / weightp=1 / keyint=240 / keyint_min=24 / scenecut=40 / intra_refresh=0 / rc_lookahead=0 / rc=2pass / mbtree=0 / bitrate=1610 / ratetol=1.0 / qcomp=0.60 / qpmin=0 / qpmax=69 / qpstep=4 / cplxblur=20.0 / qblur=0.5 / vbv_maxrate=62500 / vbv_bufsize=78125 / nal_hrd=none / ip_ratio=1.40 / pb_ratio=1.30 / aq=1:1.00
Language : Italian
Default : Yes
Forced : No
Color primaries : BT.709-5, BT.1361, IEC 61966-2-4, SMPTE RP177
Transfer characteristics : BT.709-5, BT.1361
Matrix coefficients : BT.709-5, BT.1361, IEC 61966-2-4 709, SMPTE RP177

Audio #1
ID : 2
Format : AC-3
Format/Info : Audio Coding 3
Mode extension : CM (complete main)
Codec ID : A_AC3
Duration : 1h 40mn
Bit rate mode : Constant
Bit rate : 448 Kbps
Channel(s) : 2 channels
Channel positions : Front: L R
Sampling rate : 48.0 KHz
Bit depth : 16 bits
Compression mode : Lossy
Stream size : 322 MiB (20%)
Title : Ita Ac3
Language : Italian
Default : Yes
Forced : No

Audio #2
ID : 3
Format : AC-3
Format/Info : Audio Coding 3
Mode extension : CM (complete main)
Codec ID : A_AC3
Duration : 1h 40mn
Bit rate mode : Constant
Bit rate : 192 Kbps
Channel(s) : 2 channels
Channel positions : Front: L R
Sampling rate : 48.0 KHz
Bit depth : 16 bits
Compression mode : Lossy
Stream size : 138 MiB (9%)
Title : eng Ac3
Default : No
Forced : No

Menu
00:00:00.000 : en:Ambush at Night
00:04:06.161 : en:Main Titles
00:05:48.722 : en:Grant's Mission
00:10:44.643 : en:C.M.D.F.
00:13:45.365 : en:The Project
00:16:30.613 : en:Preparations
00:23:19.689 : en:Phase One
00:28:12.648 : en:Phase Two
00:34:04.750 : en:Phase Three
00:35:23.453 : en:Phase Four
00:38:18.629 : en:Inner Space
00:41:46.127 : en:The Whirlpool
00:43:26.103 : en:Off-Course
00:47:56.623 : en:Through the Heart
00:53:58.400 : en:Air
01:07:03.393 : en:The Laser Problem
01:10:57.794 : en:The Lymphatic Jungle
01:16:05.268 : en:The Inner Ear
01:22:09.006 : en:Attack of the Antibodies
01:27:51.473 : en:To Save a Life
01:32:31.920 : en:Saboteur
01:34:00.383 : en:Killer Corpuscles
01:37:30.135 : en:The Eye Has It
01:38:59.433 : en:End Titles


Files:

Viaggio Allucinante - Fantastic Voyage (1966).720p.h264.ita.eng.sub.ita.eng.Mux by robbyrs-MIRCrew
  • BY MIRCrew.txt (0.1 KB)
  • Viaggio Allucinante - Fantastic Voyage (1966).720p.h264.ita.eng.sub.ita.eng.Mux by robbyrs-MIRCrew.eng.srt (62.3 KB)
  • Viaggio Allucinante - Fantastic Voyage (1966).720p.h264.ita.eng.sub.ita.eng.Mux by robbyrs-MIRCrew.ita.srt (57.8 KB)
  • Viaggio Allucinante - Fantastic Voyage (1966).720p.h264.ita.eng.sub.ita.eng.Mux by robbyrs-MIRCrew.mkv (1.6 GB)

There are currently no comments. Feel free to leave one :)

Code:

  • udp://tracker.coppersurfer.tk:6969/announce
  • udp://tracker.torrent.eu.org:451/announce
  • udp://tracker.pirateparty.gr:6969/announce
  • udp://tracker.opentrackr.org:1337/announce
  • udp://tracker.leechers-paradise.org:6969/announce
  • udp://tracker.eddie4.nl:6969/announce
  • udp://shadowshq.yi.org:6969/announce
  • udp://shadowshq.eddie4.nl:6969/announce
  • udp://inferno.demonoid.pw:3391/announce
  • udp://eddie4.nl:6969/announce
  • udp://9.rarbg.to:2730/announce
  • udp://9.rarbg.com:2710/announce
  • udp://9.rarbg.me:2780/announce
  • udp://62.138.0.158:6969/announce
  • udp://151.80.120.114:2710/announce
/08/e7/ff/08e7ffd6a1ad8052c7c702273b643766.js'>