The Craft (1996) + Extras (1080p BluRay x265 HEVC 10bit AAC 5.1 S...

  • Category Movies
  • Type HEVC/x265
  • Language English
  • Total size 3.6 GB
  • Uploaded By QxR
  • Downloads 550
  • Last checked 44 minutes ago
  • Date uploaded 2 days ago
  • Seeders 33
  • Leechers 11

The Craft

DramaHorrorThriller

A Catholic school newcomer falls in with a clique of teen witches who wield their powers against all who dare to cross them -- be they teachers, rivals or meddlesome parents.

Infohash : F00FE9D84C580C91688408B3F761DE8E6D25031B



https://www.imdb.com/title/tt0115963/





Media Information

Code:

General
Format : Matroska
Format version : Version 4 / Version 2
File size : 3.42 GiB
Duration : 1 h 40 min
Overall bit rate : 4 845 kb/s
Movie name : Craft
Encoded date : UTC 2018-11-18 07:14:00
Writing application : mkvmerge v20.0.0 ('I Am The Sun') 64-bit
Writing library : libebml v1.3.5 + libmatroska v1.4.8
Writing frontend : StaxRip v1.7.0.6

Video
ID : 1
Format : HEVC
Format/Info : High Efficiency Video Coding
Format profile : Main [email protected]@Main
Codec ID : V_MPEGH/ISO/HEVC
Duration : 1 h 40 min
Bit rate : 4 198 kb/s
Width : 1 920 pixels
Height : 1 032 pixels
Display aspect ratio : 1.85:1
Frame rate mode : Constant
Frame rate : 23.976 (24000/1001) FPS
Color space : YUV
Chroma subsampling : 4:2:0
Bit depth : 10 bits
Bits/(Pixel*Frame) : 0.088
Stream size : 2.96 GiB (87%)
Writing library : x265 2.9+4-471726d3a046:[Windows][MSVC 1900][64 bit] 10bit
Encoding settings : cpuid=1111039 / frame-threads=3 / numa-pools=8 / wpp / no-pmode / no-pme / no-psnr / no-ssim / log-level=2 / input-csp=1 / input-res=1920x1032 / interlace=0 / total-frames=145272 / level-idc=0 / high-tier=1 / uhd-bd=0 / ref=4 / no-allow-non-conformance / no-repeat-headers / annexb / no-aud / no-hrd / info / hash=0 / no-temporal-layers / open-gop / min-keyint=23 / keyint=250 / gop-lookahead=0 / bframes=8 / b-adapt=2 / b-pyramid / bframe-bias=0 / rc-lookahead=60 / lookahead-slices=4 / scenecut=40 / radl=0 / no-intra-refresh / ctu=64 / min-cu-size=8 / no-rect / no-amp / max-tu-size=32 / tu-inter-depth=1 / tu-intra-depth=1 / limit-tu=0 / rdoq-level=2 / dynamic-rd=0.00 / no-ssim-rd / signhide / no-tskip / nr-intra=0 / nr-inter=0 / no-constrained-intra / strong-intra-smoothing / max-merge=3 / limit-refs=3 / limit-modes / me=3 / subme=5 / merange=57 / temporal-mvp / weightp / no-weightb / no-analyze-src-pics / deblock=-3:-3 / no-sao / no-sao-non-deblock / rd=4 / no-early-skip / rskip / no-fast-intra / no-tskip-fast / no-cu-lossless / no-b-intra / no-splitrd-skip / rdpenalty=0 / psy-rd=2.00 / psy-rdoq=1.00 / no-rd-refine / no-lossless / cbqpoffs=0 / crqpoffs=0 / rc=abr / bitrate=4200 / qcomp=0.60 / qpstep=4 / stats-write=0 / stats-read=2 / cplxblur=20.0 / qblur=0.5 / ipratio=1.40 / pbratio=1.30 / aq-mode=3 / aq-strength=1.00 / cutree / zone-count=0 / no-strict-cbr / qg-size=32 / no-rc-grain / qpmax=69 / qpmin=0 / no-const-vbv / sar=0 / overscan=0 / videoformat=5 / range=0 / colorprim=2 / transfer=2 / colormatrix=2 / chromaloc=0 / display-window=0 / max-cll=0,0 / min-luma=0 / max-luma=1023 / log2-max-poc-lsb=8 / vui-timing-info / vui-hrd-info / slices=1 / no-opt-qp-pps / no-opt-ref-list-length-pps / no-multi-pass-opt-rps / scenecut-bias=0.05 / no-opt-cu-delta-qp / no-aq-motion / no-hdr / no-hdr-opt / no-dhdr10-opt / no-idr-recovery-sei / analysis-reuse-level=5 / scale-factor=0 / refine-intra=0 / refine-inter=0 / refine-mv=0 / no-limit-sao / ctu-info=0 / no-lowpass-dct / refine-mv-type=0 / copy-pic=1 / max-ausize-factor=1.0 / no-dynamic-refine / no-single-sei
Default : Yes
Forced : No

Audio #1
ID : 2
Format : AAC
Format/Info : Advanced Audio Codec
Format profile : LC
Codec ID : A_AAC
Duration : 1 h 40 min
Bit rate : 488 kb/s
Channel(s) : 6 channels
Channel positions : Front: L C R, Side: L R, LFE
Sampling rate : 48.0 kHz
Frame rate : 46.875 FPS (1024 spf)
Compression mode : Lossy
Delay relative to video : 20 ms
Stream size : 353 MiB (10%)
Language : English
Default : Yes
Forced : No

Audio #2
ID : 3
Format : AAC
Format/Info : Advanced Audio Codec
Format profile : HE-AAC / LC
Codec ID : A_AAC
Duration : 1 h 40 min
Bit rate : 80.0 kb/s
Channel(s) : 2 channels
Channel positions : Front: L R
Sampling rate : 48.0 kHz / 24.0 kHz
Frame rate : 23.438 FPS (1024 spf)
Compression mode : Lossy
Delay relative to video : 40 ms
Stream size : 57.8 MiB (2%)
Language : English
Default : No
Forced : No

Subtitle #1
ID : 4
Format : VobSub
Muxing mode : zlib
Codec ID : S_VOBSUB
Codec ID/Info : Picture based subtitle format used on DVDs
Duration : 1 h 35 min
Bit rate : 8 507 b/s
Count of elements : 1006
Stream size : 5.84 MiB (0%)
Language : English
Default : No
Forced : No

Subtitle #2
ID : 5
Format : VobSub
Muxing mode : zlib
Codec ID : S_VOBSUB
Codec ID/Info : Picture based subtitle format used on DVDs
Duration : 1 h 36 min
Bit rate : 7 668 b/s
Count of elements : 1301
Stream size : 5.29 MiB (0%)
Language : English
Default : No
Forced : No

Subtitle #3
ID : 6
Format : VobSub
Muxing mode : zlib
Codec ID : S_VOBSUB
Codec ID/Info : Picture based subtitle format used on DVDs
Duration : 1 h 40 min
Bit rate : 6 136 b/s
Count of elements : 743
Stream size : 4.40 MiB (0%)
Language : French
Default : No
Forced : No

Subtitle #4
ID : 7
Format : VobSub
Muxing mode : zlib
Codec ID : S_VOBSUB
Codec ID/Info : Picture based subtitle format used on DVDs
Duration : 26 min 30 s
Bit rate : 41 b/s
Count of elements : 2
Stream size : 8.04 KiB (0%)
Language : French
Default : No
Forced : Yes

Subtitle #5
ID : 8
Format : VobSub
Muxing mode : zlib
Codec ID : S_VOBSUB
Codec ID/Info : Picture based subtitle format used on DVDs
Duration : 26 min 30 s
Bit rate : 39 b/s
Count of elements : 2
Stream size : 7.63 KiB (0%)
Language : French
Default : No
Forced : No

Subtitle #6
ID : 9
Format : VobSub
Muxing mode : zlib
Codec ID : S_VOBSUB
Codec ID/Info : Picture based subtitle format used on DVDs
Duration : 26 min 30 s
Bit rate : 41 b/s
Count of elements : 2
Stream size : 8.04 KiB (0%)
Language : French
Default : No
Forced : Yes

Subtitle #7
ID : 10
Format : VobSub
Muxing mode : zlib
Codec ID : S_VOBSUB
Codec ID/Info : Picture based subtitle format used on DVDs
Duration : 1 h 35 min
Bit rate : 7 511 b/s
Count of elements : 796
Stream size : 5.16 MiB (0%)
Language : German
Default : No
Forced : No

Subtitle #8
ID : 11
Format : VobSub
Muxing mode : zlib
Codec ID : S_VOBSUB
Codec ID/Info : Picture based subtitle format used on DVDs
Duration : 41 min 26 s
Bit rate : 41 b/s
Count of elements : 3
Stream size : 12.5 KiB (0%)
Language : German
Default : No
Forced : Yes

Subtitle #9
ID : 12
Format : VobSub
Muxing mode : zlib
Codec ID : S_VOBSUB
Codec ID/Info : Picture based subtitle format used on DVDs
Duration : 41 min 26 s
Bit rate : 40 b/s
Count of elements : 3
Stream size : 12.3 KiB (0%)
Language : German
Default : No
Forced : No

Subtitle #10
ID : 13
Format : VobSub
Muxing mode : zlib
Codec ID : S_VOBSUB
Codec ID/Info : Picture based subtitle format used on DVDs
Duration : 41 min 26 s
Bit rate : 41 b/s
Count of elements : 3
Stream size : 12.7 KiB (0%)
Language : German
Default : No
Forced : Yes

Subtitle #11
ID : 14
Format : VobSub
Muxing mode : zlib
Codec ID : S_VOBSUB
Codec ID/Info : Picture based subtitle format used on DVDs
Duration : 1 h 35 min
Bit rate : 3 921 b/s
Count of elements : 768
Stream size : 2.69 MiB (0%)
Language : Arabic
Default : No
Forced : No

Subtitle #12
ID : 15
Format : VobSub
Muxing mode : zlib
Codec ID : S_VOBSUB
Codec ID/Info : Picture based subtitle format used on DVDs
Duration : 1 h 35 min
Bit rate : 6 070 b/s
Count of elements : 669
Stream size : 4.17 MiB (0%)
Language : Danish
Default : No
Forced : No

Subtitle #13
ID : 16
Format : VobSub
Muxing mode : zlib
Codec ID : S_VOBSUB
Codec ID/Info : Picture based subtitle format used on DVDs
Duration : 1 h 35 min
Bit rate : 6 787 b/s
Count of elements : 726
Stream size : 4.66 MiB (0%)
Language : Dutch
Default : No
Forced : No

Subtitle #14
ID : 17
Format : VobSub
Muxing mode : zlib
Codec ID : S_VOBSUB
Codec ID/Info : Picture based subtitle format used on DVDs
Duration : 1 h 35 min
Bit rate : 7 017 b/s
Count of elements : 922
Stream size : 4.82 MiB (0%)
Language : Finnish
Default : No
Forced : No

Subtitle #15
ID : 18
Format : VobSub
Muxing mode : zlib
Codec ID : S_VOBSUB
Codec ID/Info : Picture based subtitle format used on DVDs
Duration : 1 h 35 min
Bit rate : 6 527 b/s
Count of elements : 697
Stream size : 4.48 MiB (0%)
Language : Hindi
Default : No
Forced : No

Subtitle #16
ID : 19
Format : VobSub
Muxing mode : zlib
Codec ID : S_VOBSUB
Codec ID/Info : Picture based subtitle format used on DVDs
Duration : 1 h 35 min
Bit rate : 5 792 b/s
Count of elements : 667
Stream size : 3.98 MiB (0%)
Language : Norwegian Bokmal
Default : No
Forced : No

Subtitle #17
ID : 20
Format : VobSub
Muxing mode : zlib
Codec ID : S_VOBSUB
Codec ID/Info : Picture based subtitle format used on DVDs
Duration : 1 h 35 min
Bit rate : 5 118 b/s
Count of elements : 684
Stream size : 3.51 MiB (0%)
Language : Swedish
Default : No
Forced : No

Subtitle #18
ID : 21
Format : VobSub
Muxing mode : zlib
Codec ID : S_VOBSUB
Codec ID/Info : Picture based subtitle format used on DVDs
Duration : 1 h 35 min
Bit rate : 6 927 b/s
Count of elements : 784
Stream size : 4.76 MiB (0%)
Language : Turkish
Default : No
Forced : No

Subtitle #19
ID : 22
Format : VobSub
Muxing mode : zlib
Codec ID : S_VOBSUB
Codec ID/Info : Picture based subtitle format used on DVDs
Duration : 1 h 36 min
Bit rate : 14.2 kb/s
Count of elements : 1453
Stream size : 9.85 MiB (0%)
Language : English
Default : No
Forced : No

Subtitle #20
ID : 23
Format : VobSub
Muxing mode : zlib
Codec ID : S_VOBSUB
Codec ID/Info : Picture based subtitle format used on DVDs
Duration : 1 h 36 min
Bit rate : 12.3 kb/s
Count of elements : 1386
Stream size : 8.51 MiB (0%)
Language : French
Default : No
Forced : No

Subtitle #21
ID : 24
Format : VobSub
Muxing mode : zlib
Codec ID : S_VOBSUB
Codec ID/Info : Picture based subtitle format used on DVDs
Duration : 1 h 36 min
Bit rate : 14.0 kb/s
Count of elements : 1384
Stream size : 9.68 MiB (0%)
Language : German
Default : No
Forced : No

Subtitle #22
ID : 25
Format : VobSub
Muxing mode : zlib
Codec ID : S_VOBSUB
Codec ID/Info : Picture based subtitle format used on DVDs
Duration : 1 h 36 min
Bit rate : 13.6 kb/s
Count of elements : 1418
Stream size : 9.40 MiB (0%)
Language : Dutch
Default : No
Forced : No

Menu
00:00:00.000 : en:Chapter 01
00:05:12.770 : en:Chapter 02
00:13:14.376 : en:Chapter 03
00:17:29.757 : en:Chapter 04
00:24:46.234 : en:Chapter 05
00:28:17.946 : en:Chapter 06
00:35:04.018 : en:Chapter 07
00:41:17.349 : en:Chapter 08
00:48:42.252 : en:Chapter 09
00:53:23.825 : en:Chapter 10
01:02:23.072 : en:Chapter 11
01:08:57.216 : en:Chapter 12
01:15:36.323 : en:Chapter 13
01:20:25.529 : en:Chapter 14
01:26:08.955 : en:Chapter 15
01:28:29.512 : en:Chapter 16

Source Information

Code:

Release:
Untouched Bluray


Note From QxR:

Quote:

Whilst we are happy for our releases to be re-posted on a platform we aren't on, please do so in an 'as-is' format. We ask that you do not create a new torrent, include all descriptions you see above including the QxR logo, tags, notes and screenshots. If you'd like to become a permanent poster on a website we don't post to, feel free to get in contact with a QxR member.


Files:

The Craft (1996) + Extras (1080p BluRay x265 HEVC 10bit AAC 5.1 Silence) Featurettes
  • Conjuring The Craft.mkv (101.5 MB)
  • Menu Art.mkv (19.8 MB)
  • The Original Behind-the-Scenes of The Craft.mkv (37.2 MB)
  • The Craft (1996) (1080p BluRay x265 Silence).mkv (3.4 GB)

Comments

Code:

  • udp://tracker.coppersurfer.tk:6969/announce
  • udp://tracker.opentrackr.org:1337/announce
  • udp://tracker.zer0day.to:1337/announce
  • udp://tracker.torrent.eu.org:451/announce
  • udp://tracker.leechers-paradise.org:6969/announce
  • udp://p4p.arenabg.com:1337/announce
  • udp://tracker.internetwarriors.net:1337/announce
/08/e7/ff/08e7ffd6a1ad8052c7c702273b643766.js'>