Kin (2018) Complete (1080p BluRay x265 HEVC 10bit AAC 7.1 Q22 Joy...

  • Category Movies
  • Type HEVC/x265
  • Language English
  • Total size 2.8 GB
  • Uploaded By UTRCorp
  • Downloads 553
  • Last checked 11 minutes ago
  • Date uploaded 2 days ago
  • Seeders 42
  • Leechers 21

Kin

Science FictionAction

An ex-convict and his brother are forced on the run by a vengeful criminal.

Infohash : F719E79D3C5A2A4A95F306B9134DB9BDBED45037








[CENTER]

Media Information
Includes all Featurettes

Media Information

Code:

General
Format : Matroska
Format version : Version 4 / Version 2
File size : 1.43 GiB
Duration : 1 h 42 min
Overall bit rate : 1 994 kb/s
Movie name : Kin 2018 (1080p x265 q22 S90 Joy)[UTR]
Encoded date : UTC 2018-11-18 18:42:27
Writing application : mkvmerge v28.1.0 ('Morning Child') 64-bit
Writing library : libebml v1.3.6 + libmatroska v1.4.9
Cover : Yes
Attachments : cover.jpg
Writing frontend : StaxRip v1.8.2.0

Video
ID : 1
Format : HEVC
Format/Info : High Efficiency Video Coding
Format profile : Main [email protected]@Main
Codec ID : V_MPEGH/ISO/HEVC
Duration : 1 h 42 min
Bit rate : 1 406 kb/s
Width : 1 920 pixels
Height : 800 pixels
Display aspect ratio : 2.40:1
Frame rate mode : Constant
Frame rate : 23.976 (24000/1001) FPS
Color space : YUV
Chroma subsampling : 4:2:0
Bit depth : 10 bits
Bits/(Pixel*Frame) : 0.038
Stream size : 1.01 GiB (71%)
Writing library : x265 2.8+19-bcdc610cf5f0:[Windows][MSVC 1914][64 bit] 10bit
Encoding settings : cpuid=1111039 / frame-threads=3 / numa-pools=8 / wpp / no-pmode / no-pme / no-psnr / ssim / log-level=2 / input-csp=1 / input-res=1920x800 / interlace=0 / total-frames=148033 / level-idc=0 / high-tier=1 / uhd-bd=0 / ref=4 / no-allow-non-conformance / no-repeat-headers / annexb / no-aud / no-hrd / info / hash=0 / no-temporal-layers / open-gop / min-keyint=23 / keyint=250 / gop-lookahead=0 / bframes=4 / b-adapt=2 / b-pyramid / bframe-bias=0 / rc-lookahead=25 / lookahead-slices=4 / scenecut=40 / radl=0 / no-intra-refresh / ctu=64 / min-cu-size=8 / rect / no-amp / max-tu-size=32 / tu-inter-depth=1 / tu-intra-depth=1 / limit-tu=0 / rdoq-level=2 / dynamic-rd=0.00 / ssim-rd / signhide / no-tskip / nr-intra=0 / nr-inter=0 / no-constrained-intra / strong-intra-smoothing / max-merge=3 / limit-refs=3 / limit-modes / me=3 / subme=3 / merange=57 / temporal-mvp / weightp / no-weightb / no-analyze-src-pics / deblock=-2:-2 / sao / sao-non-deblock / rd=4 / early-skip / rskip / no-fast-intra / no-tskip-fast / no-cu-lossless / no-b-intra / no-splitrd-skip / rdpenalty=0 / psy-rd=0.00 / psy-rdoq=1.00 / no-rd-refine / no-lossless / cbqpoffs=0 / crqpoffs=0 / rc=crf / crf=22.0 / qcomp=0.60 / qpstep=4 / stats-write=0 / stats-read=0 / ipratio=1.40 / pbratio=1.30 / aq-mode=3 / aq-strength=1.00 / cutree / zone-count=0 / no-strict-cbr / qg-size=32 / no-rc-grain / qpmax=69 / qpmin=0 / no-const-vbv / sar=0 / overscan=0 / videoformat=5 / range=0 / colorprim=2 / transfer=2 / colormatrix=2 / chromaloc=0 / display-window=0 / max-cll=0,0 / min-luma=0 / max-luma=1023 / log2-max-poc-lsb=8 / vui-timing-info / vui-hrd-info / slices=1 / no-opt-qp-pps / no-opt-ref-list-length-pps / no-multi-pass-opt-rps / scenecut-bias=0.05 / no-opt-cu-delta-qp / no-aq-motion / no-hdr / no-hdr-opt / no-dhdr10-opt / no-idr-recovery-sei / analysis-reuse-level=5 / scale-factor=0 / refine-intra=0 / refine-inter=0 / refine-mv=0 / no-limit-sao / ctu-info=0 / no-lowpass-dct / refine-mv-type=0 / copy-pic=1 / max-ausize-factor=1.0 / no-dynamic-refine / no-single-sei
Default : Yes
Forced : No

Audio #1
ID : 2
Format : AAC
Format/Info : Advanced Audio Codec
Format profile : LC
Codec ID : A_AAC
Duration : 1 h 42 min
Bit rate : 429 kb/s
Channel(s) : 7 channels
Channel(s)_Original : 8 channels
Channel positions : Front: L C R, Side: L R, Back: L R, LFE
Sampling rate : 48.0 kHz
Frame rate : 46.875 FPS (1024 spf)
Compression mode : Lossy
Delay relative to video : 9 ms
Stream size : 316 MiB (22%)
Language : English
Default : No
Forced : No

Audio #2
ID : 3
Format : AAC
Format/Info : Advanced Audio Codec
Format profile : HE-AAC / LC
Codec ID : A_AAC
Duration : 1 h 42 min
Bit rate : 52.0 kb/s
Channel(s) : 2 channels
Channel positions : Front: L R
Sampling rate : 48.0 kHz / 24.0 kHz
Frame rate : 23.438 FPS (1024 spf)
Compression mode : Lossy
Delay relative to video : 31 ms
Stream size : 38.3 MiB (3%)
Title : Commentary
Language : English
Default : No
Forced : No

Audio #3
ID : 4
Format : AAC
Format/Info : Advanced Audio Codec
Format profile : LC
Codec ID : A_AAC
Duration : 1 h 42 min
Bit rate : 88.3 kb/s
Channel(s) : 2 channels
Channel positions : Front: L R
Sampling rate : 48.0 kHz
Frame rate : 46.875 FPS (1024 spf)
Compression mode : Lossy
Delay relative to video : 9 ms
Stream size : 65.0 MiB (4%)
Language : Spanish
Default : No
Forced : No

Subtitle #1
ID : 5
Format : VobSub
Muxing mode : zlib
Codec ID : S_VOBSUB
Codec ID/Info : Picture based subtitle format used on DVDs
Duration : 1 h 34 min
Bit rate : 8 266 b/s
Count of elements : 1072
Stream size : 5.59 MiB (0%)
Language : English
Default : No
Forced : No

Subtitle #2
ID : 6
Format : VobSub
Muxing mode : zlib
Codec ID : S_VOBSUB
Codec ID/Info : Picture based subtitle format used on DVDs
Duration : 1 h 35 min
Bit rate : 10.2 kb/s
Count of elements : 1294
Stream size : 6.98 MiB (0%)
Language : English
Default : No
Forced : No

Subtitle #3
ID : 7
Format : VobSub
Muxing mode : zlib
Codec ID : S_VOBSUB
Codec ID/Info : Picture based subtitle format used on DVDs
Duration : 1 h 34 min
Bit rate : 7 356 b/s
Count of elements : 1015
Stream size : 4.97 MiB (0%)
Language : Spanish
Default : No
Forced : No

Subtitle #4
ID : 8
Format : VobSub
Muxing mode : zlib
Codec ID : S_VOBSUB
Codec ID/Info : Picture based subtitle format used on DVDs
Duration : 52 min 58 s
Bit rate : 190 b/s
Count of elements : 8
Stream size : 74.0 KiB (0%)
Language : Spanish
Default : No
Forced : Yes

Subtitle #5
ID : 9
Format : VobSub
Muxing mode : zlib
Codec ID : S_VOBSUB
Codec ID/Info : Picture based subtitle format used on DVDs
Duration : 52 min 58 s
Bit rate : 184 b/s
Count of elements : 8
Stream size : 71.4 KiB (0%)
Language : Spanish
Default : No
Forced : No

Subtitle #6
ID : 10
Format : VobSub
Muxing mode : zlib
Codec ID : S_VOBSUB
Codec ID/Info : Picture based subtitle format used on DVDs
Duration : 52 min 58 s
Bit rate : 190 b/s
Count of elements : 8
Stream size : 74.0 KiB (0%)
Language : Spanish
Default : No
Forced : Yes

Subtitle #7
ID : 11
Format : UTF-8
Codec ID : S_TEXT/UTF8
Codec ID/Info : UTF-8 Plain Text
Duration : 1 h 41 min
Bit rate : 48 b/s
Count of elements : 881
Stream size : 36.2 KiB (0%)
Language : Arabic
Default : No
Forced : No

Subtitle #8
ID : 12
Format : UTF-8
Codec ID : S_TEXT/UTF8
Codec ID/Info : UTF-8 Plain Text
Duration : 1 h 34 min
Bit rate : 31 b/s
Count of elements : 781
Stream size : 22.2 KiB (0%)
Language : Danish
Default : No
Forced : No

Subtitle #9
ID : 13
Format : UTF-8
Codec ID : S_TEXT/UTF8
Codec ID/Info : UTF-8 Plain Text
Duration : 1 h 34 min
Bit rate : 39 b/s
Count of elements : 763
Stream size : 27.2 KiB (0%)
Language : Dutch
Default : No
Forced : No

Subtitle #10
ID : 14
Format : UTF-8
Codec ID : S_TEXT/UTF8
Codec ID/Info : UTF-8 Plain Text
Duration : 1 h 42 min
Bit rate : 58 b/s
Count of elements : 1026
Stream size : 44.1 KiB (0%)
Language : Persian
Default : No
Forced : No

Subtitle #11
ID : 15
Format : UTF-8
Codec ID : S_TEXT/UTF8
Codec ID/Info : UTF-8 Plain Text
Duration : 1 h 37 min
Bit rate : 32 b/s
Count of elements : 1016
Stream size : 23.2 KiB (0%)
Language : Indonesian
Default : No
Forced : No

Menu
00:00:00.000 : en:Chapter 01
00:07:23.734 : en:Chapter 02
00:12:34.712 : en:Chapter 03
00:20:44.451 : en:Chapter 04
00:27:27.812 : en:Chapter 05
00:31:57.123 : en:Chapter 06
00:36:39.780 : en:Chapter 07
00:41:57.848 : en:Chapter 08
00:50:09.548 : en:Chapter 09
00:56:57.497 : en:Chapter 10
01:05:01.355 : en:Chapter 11
01:08:01.368 : en:Chapter 12
01:13:58.600 : en:Chapter 13
01:17:52.209 : en:Chapter 14
01:25:58.736 : en:Chapter 15
01:34:28.954 : en:Chapter 16



Source Information

Code:

Release:
Kin.2018.1080p.BluRay.AVC.DTS-HD.MA.5.1-BAKED (44.6GB)




We have no issue with individuals posting or re-uploading our torrents on a platform we aren't on. However, if this is something you'd like to do, please do so in a 'as-is' format. We ask that you do not create a new torrent, include all descriptions you see above including the UTR logo, tags, notes and screenshots. If you'd like to become a permanent poster on a website we don't post to, feel free to get in contact with a UniTeam member.

Files:

Kin 2018 (1080p x265 q22 S90 Joy)
  • Kin 2018 (1080p x265 q22 S90 Joy).mkv (1.4 GB)
  • folder.jpg (736.3 KB)
  • How to play HEVC (THIS FILE).txt (3.4 KB)
  • Encoded by JoyBell (UTR).txt (2.7 KB)
  • Ninite K-Lite Codecs Unattended Silent Installer and Updater.website (0.5 KB)
  • Featurettes
    • Bag Man 2014 - Short (1080p x265 q22 Joy).mkv (134.5 MB)
    • Dave Morley - VFX Supervisor (1080p x265 q24 Joy).mkv (33.4 MB)
    • Deleted Scenes (1080p x265 q23 Joy).mkv (81.4 MB)
    • Family Dynamic - Casting (1080p x265 q24 Joy).mkv (154.6 MB)
    • Family is Everything - Reflections (1080p x265 q24 Joy).mkv (55.1 MB)
    • Hiding in Plain Sight - Maintaining Mystery (1080p x265 q24 Joy).mkv (64.1 MB)
    • Keegen Douglas - Compositing Supervisor (1080p x265 q24 Joy).mkv (17.6 MB)
    • Learned Behavior - Special Features at Work (1080p x265 q24 Joy).mkv (339.6 MB)
    • On the Run - Locations (1080p x265 q24 Joy).mkv (77.2 MB)
    • Sonic Foundation - Music & Sound (1080p x265 q24 Joy).mkv (100.3 MB)
    • Thicker than Water - The Making of KIN (1080p x265 q24 Joy).mkv (118.2 MB)
    • Tone Cops - Esthetic & VFX (1080p x265 q24 Joy).mkv (191.9 MB)
    • Weaponized - Finding the Gun (1080p x265 q24 Joy).mkv (67.8 MB)

Comments

Code:

  • udp://mgtracker.org:6969/announce
  • udp://tracker.coppersurfer.tk:6969/announce
  • udp://9.rarbg.com:2710/announce
  • udp://9.rarbg.to:2710/announce
  • udp://tracker.mgtracker.org:2710/announce
  • udp://public.popcorn-tracker.org:6969/announce
  • udp://tracker.torrent.eu.org:451/announce
  • udp://exodus.desync.com:6969/announce
  • udp://tracker.tiny-vps.com:6969/announce
  • udp://tracker.torrent.eu.org:451/announce
  • udp://open.demonii.si:1337/announce
  • udp://tracker.opentrackr.org:1337/announce
/08/e7/ff/08e7ffd6a1ad8052c7c702273b643766.js'>